Старшеклассницы / Joshikousei: Girl's High / High School Girls [S01 + Спешелы] (2006) DVDRip от Deadmauvlad | P | Лицензия

Ответить на тему
Статистика раздачи [Обновить пиров]
Размер:  4,92 GB   |    Зарегистрирован:  1 год 2 месяца   |    .torrent скачан:  5 раз
Раздают:  4  [  0 KB/s  ]   Качают:  1  [  0 KB/s  ]   Подробная статистика пиров
 
   
 
 
Автор Сообщение

4udaki ®

Оффлайн

Медали


Пол: Мужской

Стаж: 6 лет 11 месяцев

Наличие запрета:

Сообщений: 11563

Откуда: korsars.pro

Отдача: 2 Mb/s

Загрузка: 20 Mb/s

Нажми


Скачать Adguard бесплатно

Создавать темы 13-Авг-2020 13:56

[Цитировать]


Информация о фильме
Название: Старшеклассницы
Оригинальное название: Joshikousei: Girl's High
Год выхода: 2006
Жанр: комедия, школа, этти
Режиссер: Фудзимото Ёситака
Снято по манге: Joshi Kousei: Baka Gundan
Автор оригинала: Осима Това
Описание: Аяно Сато, Эрико Такахаси и Юма Судзуки переводятся из средней общей в старшую женскую школу. Это так волнующе – оказаться старшеклассницами, да еще в системе раздельного обучения! Хорошо бы только разведать заранее, чем именно школа для девочек отличается от общей: так ли опрятна, уютна и облагорожена женственностью, как это можно представить? Правда, быстро выясняется, что раздевалки там такие же (или даже более) запущенные, грязь в шкафчиках ужасная, от сменки попахивает – словом, стимулирующего мужского влияния гимназии Фудзи очень не хватает! Среди этих расследований компания Эрико успевает встретиться с другой группкой новеньких. Те принимают Эрико и К за старожилок и начинают расспрашивать их о правилах Фудзи. И Эрико начинает строить из себя сэмпая – и экзаменов тут гораздо меньше, и бойфренды у старшеклассниц появляются «на автомате», и стипендия выше в разы... Ох, и приятно же будет встретиться с замороченными одноклассницами в День Начала Занятий!..

Страна: Япония
Студия: Arms
Продолжительность: 12 серий x ~00:25:00 + 03 серии x ~ 00:03:00
Перевод: Профессиональное (многоголосое, закадровое) MC Entertainment [S01+SP] Лицензия
Перевод: Русские субтитры (Перевод MC Entertainment) + Оригинал
Файл
Кодек: XviD
Качество: DVDRip
Видео: XviD, 720x400 (16:9), 23.976 fps, 1 474 kb/s (0.214 bit/pixel)
Аудио №1: AC3, 48.0 kHz, 6 ch, 384 kb/s, CBR | | MC Entertainment
Аудио №2: AC3, 48.0 kHz, 6 ch, 384 kb/s, CBR | | Japan (Оригинал)

MediaInfo

Общее
Полное имя : [Deadmau- RAWS] Старшеклассницы.2006.S01.RUS.JAP.DVDRip.Deadmauvlad.Ep.01.avi
Формат : AVI
Формат/Информация : Audio Video Interleave
Размер файла : 390 Мбайт
Продолжительность : 24 м. 8 с.
Общий поток : 2256 Кбит/сек
Режиссёр : Encoder by Deadmauvlad
Программа кодирования : VirtualDubMod 1.5.10.3 | www.virtualdub-fr.org || (build 2550/release)
Библиотека кодирования : VirtualDubMod build 2550/release
Авторское право : Encoder by Deadmauvlad
Видео
Идентификатор : 0
Формат : MPEG-4 Visual
Профиль формата : Advanced Simple@L5
Настройки формата : BVOP1 / Custom Matrix
Параметр BVOP формата : 1
Параметр QPel формата : Нет
Параметр GMC формата : Без точки перехода
Параметр матрицы формата : Выборочная
Идентификатор кодека : XVID
Идентификатор кодека/Подсказка : XviD
Продолжительность : 24 м. 8 с.
Битрейт : 1474 Кбит/сек
Ширина : 720 пикселей
Высота : 400 пикселей
Соотношение сторон : 16:9
Частота кадров : 23,976 (24000/1001) кадра/сек
Цветовое пространство : YUV
Субдискретизация насыщенности : 4:2:0
Битовая глубина : 8 бит
Тип развёртки : Прогрессивная
Метод сжатия : С потерями
Бит/(Пиксели*Кадры) : 0.214
Размер потока : 255 Мбайт (65%)
Библиотека кодирования : XviD 73
Аудио #1
Идентификатор : 1
Формат : AC-3
Формат/Информация : Audio Coding 3
Коммерческое название : Dolby Digital
Идентификатор кодека : 2000
Продолжительность : 24 м. 8 с.
Вид битрейта : Постоянный
Битрейт : 384 Кбит/сек
Каналы : 6 каналов
ChannelLayout : L R C LFE Ls Rs
Частота : 48,0 КГц
Частота кадров : 31,250 кадров/сек (1536 SPF)
Метод сжатия : С потерями
Размер потока : 66,3 Мбайт (17%)
Выравнивание : Разделение по промежуткам
Продолжительность промежутка : 42 мс. (1,00 видеокадр)
Время предзагрузки промежутка : 500 мс.
Аудио #2
Идентификатор : 2
Формат : AC-3
Формат/Информация : Audio Coding 3
Коммерческое название : Dolby Digital
Идентификатор кодека : 2000
Продолжительность : 24 м. 8 с.
Вид битрейта : Постоянный
Битрейт : 384 Кбит/сек
Каналы : 6 каналов
ChannelLayout : L R C LFE Ls Rs
Частота : 48,0 КГц
Частота кадров : 31,250 кадров/сек (1536 SPF)
Метод сжатия : С потерями
Размер потока : 66,3 Мбайт (17%)
Выравнивание : Разделение по промежуткам
Продолжительность промежутка : 42 мс. (1,00 видеокадр)
Время предзагрузки промежутка : 500 мс.

Эпизоды

01. High School Girls Are Stupid
02. Physical Examinations Are the Scent of Maidens' Shyness
03. Fall in Love, Deceived, and Then a Love Hotel?
04. Saki Girls' Bloomers Hitherto
05. The Swimsuit, the Beauty, and the Macho Teacher
06. Cracks
07. An Example of a Difficult Situation Where Teachers Mistakenly Hit on Students
08. We were young a long time ago - Back to the yesteryears
09. Farewell! Kouda Akari
10. Glasses! Glasses! Glasses!
11. Saki Girls' Tales of Failed Love. ~Feelings, Crossing Over the Years~
12. Stupidity, Never-Ending Stupidity
Specials:
01. Field Trip to Chichibu! Flowing Journey "Soaring"
02. Field Trip to Chichibu! Flowing Journey "Straying Away"
03. Field Trip to Chichibu! Flowing Journey "Reunion"
--
Релиз без какой-либо рекламы!
Релиз / Автор рипа: Deadmauvlad ^_^
[korsars.pro].t31110.torrent 
Торрент: Зарегистрирован [ 2020-08-13 13:56 ] · B46FF5EE466CECDB054B3E7BA5945972898D870A

Скачать .torrent

Размер .torrent файла 17 KB

Статус: проверено
.torrent скачан: 5 раз
Размер: 4,92 GB
Правила
deadmauvlad(14-Авг-20)
Похожие темы

Вы не зарегистрированы на нашем сайте. Вам доступна для скачивания только часть контента. Чтобы увидеть весь контент сайта, пожалуйста, зарегистрироруйтесь.

Дешевый и быстрый Сидбокс

Ключи и пин-коды

Игры, Кредитные карты, IP-телефония, Интернет провайдеры, Мобильная связь, Спутниковое ТВ

Электронные книги

Бизнес и экономика, Дом, быт, семья, досуг, Санкт-Петербург, Компьютеры и интернет, Наука и образование, Техническая литература, Юридическая литература

Цифровые товары

iTunes & App Store, Базы данных, Дизайн, Доступ к ресурсам, Kарты продления, ключи, Фотографии, Шаблоны для сайтов

Программное обеспечение

Безопасность, Игры, PC, Интернет, Мобильная связь, Программирование, Продвижение сайтов (SEO), Утилиты
У Вас отключен VIP статус, поэтому Вам показывается реклама на сайте. Вы можете поддержать наш ресурс и приобрести VIP статус, тем самым отключив показ рекламы на сайте, а ещё VIP пользователи получают возможность

смотреть аниме онлайн в HD качестве

(не распространяется на раздел Flarrow Films), а так же получить 5 инвайтов, которыми можно поделиться с друзьями или знакомыми.
Дешевый и быстрый Сидбокс

Ключи и пин-коды

Игры, Кредитные карты, IP-телефония, Интернет провайдеры, Мобильная связь, Спутниковое ТВ

Электронные книги

Бизнес и экономика, Дом, быт, семья, досуг, Санкт-Петербург, Компьютеры и интернет, Наука и образование, Техническая литература, Юридическая литература

Цифровые товары

iTunes & App Store, Базы данных, Дизайн, Доступ к ресурсам, Kарты продления, ключи, Фотографии, Шаблоны для сайтов

Программное обеспечение

Безопасность, Игры, PC, Интернет, Мобильная связь, Программирование, Продвижение сайтов (SEO), Утилиты
[Профиль] [ЛС]
Показать сообщения:    
Ответить на тему

Текущее время: 20-Окт 11:18

Часовой пояс: UTC + 4



Вы не можете начинать темы
Вы не можете отвечать на сообщения
Вы не можете редактировать свои сообщения
Вы не можете удалять свои сообщения
Вы не можете голосовать в опросах
Вы не можете прикреплять файлы к сообщениям
Вы можете скачивать файлы
Анализ сайта korsars.pro Яндекс.Метрика