Детстроук: Рыцари и Драконы / Deathstroke: Knights & Dragons (2020) WEB-DL 1080p | Flarrow Films

Ответить на тему
Статистика раздачи [Обновить пиров]
Размер:  2,96 GB   |    Зарегистрирован:  6 месяцев 26 дней   |    .torrent скачан:  2 раза
Раздают:  48  [  0 KB/s  ]   Качают:  1  [  0 KB/s  ]   Подробная статистика пиров
 
   
 
 
Автор Сообщение

flarrowfilms ®

Оффлайн

Медали
VIPДруг трекераСупер Мега Контер Квейк


Пол: Не указан

Стаж: 11 месяцев 13 дней

Наличие запрета:

Сообщений: 71

Отдача: 5 Mb/s

Загрузка: 5 Mb/s

Нажми


Скачать Adguard бесплатно

Создавать темы 11-Авг-2020 18:44

[Цитировать]

Информация о фильме
Название: Детстроук: Рыцари и Драконы
Оригинальное название: Deathstroke: Knights & Dragons
Год выхода: 2020
Жанр: мультфильм, ужасы, фантастика, фэнтези, боевик, триллер, комедия, криминал, детектив, приключения
Режиссер: Сун Чжин Ан
В ролях: Майкл Чиклис, Саша Александер, Ашер Бишоп, Кастуло Герра, Дельберт Хант, Крис Джай Алекс, Фэй Мата, Панта Мослех, Колин Салмон, Минай Ноджи
О фильме:
Дефстроук: Рыцари и Драконы. Слэйд Уилсон переживает непростое время. Десять лет назад ему и его семье угрожала серьёзная опасность, тогда Детстроук сумел разобраться, но теперь эти проблемы возвращаются. Слэйду и его семье снова угрожают Шакал и террористы группировки У.Л.Е.Й.

Страна: США
Продолжительность: 01:27:21
Перевод: Профессиональный (многоголосый, закадровый) | Flarrow Films
Роли озвучивали: Антон Алёхин, Ахилл Намазов, Лена Лунина, Денис Кузьмичёв, Рута Новикова, Андрей Маслов и Дмитрий Мальков
Файл
Формат: MKV
Кодек: MPEG-4 AVC
Качество: WEB-DL 1080
Видео: 1920х1080, ~ 4 529 kb/s, 23.976 FPS, 8 bits
Звук: AC-3, 320 kb/s, 2 channels, 48.0 kHz
Субтитры: русские (отключаемые UTF-8)-

MediaInfo

General
Unique ID : 35622966478533676532582795954950413438 (0x1ACCBBD9539D752E7ADCDD8FEEAA9C7E)
Complete name : C:\Flarrow\Deathstroke.Knights.and.Dragons.2020.1080p.WEB.DL.Flarrow.Films.mkv
Format : Matroska
Format version : Version 4
File size : 2.96 GiB
Duration : 1 h 27 min
Overall bit rate : 4 850 kb/s
Encoded date : UTC 2020-08-11 14:00:55
Writing application : mkvmerge v32.0.0 ('Astral Progressions') 64-bit
Writing library : libebml v1.3.7 + libmatroska v1.5.0
Video
ID : 1
Format : AVC
Format/Info : Advanced Video Codec
Format profile : High@L4
Format settings : CABAC / 2 Ref Frames
Format settings, CABAC : Yes
Format settings, Reference : 2 frames
Codec ID : V_MPEG4/ISO/AVC
Duration : 1 h 27 min
Bit rate : 4 529 kb/s
Width : 1 920 pixels
Height : 1 080 pixels
Display aspect ratio : 16:9
Frame rate mode : Constant
Frame rate : 23.976 (24000/1001) FPS
Color space : YUV
Chroma subsampling : 4:2:0
Bit depth : 8 bits
Scan type : Progressive
Bits/(Pixel*Frame) : 0.091
Stream size : 2.76 GiB (93%)
Writing library : x264 core 155 r2901 7d0ff22
Default : Yes
Forced : No
Color range : Limited
Color primaries : BT.709
Transfer characteristics : BT.709
Matrix coefficients : BT.709
Audio
ID : 2
Format : AC-3
Format/Info : Audio Coding 3
Commercial name : Dolby Digital
Codec ID : A_AC3
Duration : 1 h 27 min
Bit rate mode : Constant
Bit rate : 320 kb/s
Channel(s) : 2 channels
Channel layout : L R
Sampling rate : 48.0 kHz
Frame rate : 31.250 FPS (1536 SPF)
Compression mode : Lossy
Stream size : 200 MiB (7%)
Language : Russian
Service kind : Complete Main
Default : Yes
Forced : No
Text
ID : 3
Format : UTF-8
Codec ID : S_TEXT/UTF8
Codec ID/Info : UTF-8 Plain Text
Duration : 1 h 25 min
Bit rate : 87 b/s
Count of elements : 1109
Stream size : 55.0 KiB (0%)
Language : Russian
Default : Yes
Forced : No
--Релиз от: Flarrow Films
Примечание: Без интро Flarrow Films- -

[korsars.pro].t31048.torrent 
Торрент: Зарегистрирован [ 2020-08-11 18:44 ] · F9D6696115C4E353B8DE1102B5A1D0673BD40241

Скачать .torrent

Размер .torrent файла 15 KB

Статус: проверено
.torrent скачан: 2 раз
Размер: 2,96 GB
Правила
Похожие темы

Вы не зарегистрированы на нашем сайте. Вам доступна для скачивания только часть контента. Чтобы увидеть весь контент сайта, пожалуйста, зарегистрироруйтесь.

У Вас отключен VIP статус, поэтому Вам показывается реклама на сайте. Вы можете поддержать наш ресурс и приобрести VIP статус, тем самым отключив показ рекламы на сайте, а ещё VIP пользователи получают возможность

смотреть фильмы, сериалы и аниме онлайн в HD качестве

(не распространяется на раздел Flarrow Films), а так же получить 5 инвайтов, которыми можно поделиться с друзьями или знакомыми.
[Профиль] [ЛС]
Показать сообщения:    
Ответить на тему

Текущее время: 07-Мар 18:11

Часовой пояс: UTC + 4



Вы не можете начинать темы
Вы не можете отвечать на сообщения
Вы не можете редактировать свои сообщения
Вы не можете удалять свои сообщения
Вы не можете голосовать в опросах
Вы не можете прикреплять файлы к сообщениям
Вы можете скачивать файлы
Анализ сайта korsars.pro Яндекс.Метрика