Короткометражка Marvel: Забавный случай на пути к молоту Тора / Marvel One-Shot: A Funny Thing Happened on the Way to Thor's Hammer (2011) BD Remux 1080p | D | Flarrow Films

Ответить на тему
Статистика раздачи [Обновить пиров]
Размер:  331 MB   |    Зарегистрирован:  7 месяцев 3 дня   |    .torrent скачан:  11 раз
Раздают:  40  [  0 KB/s  ]   Качают:  3  [  0 KB/s  ]   Подробная статистика пиров
 
   
 
 
Автор Сообщение

flarrowfilms ®

Оффлайн

Медали
VIPДруг трекераСупер Мега Контер Квейк


Пол: Не указан

Стаж: 11 месяцев 9 дней

Наличие запрета:

Сообщений: 71

Отдача: 5 Mb/s

Загрузка: 5 Mb/s

Нажми


Скачать Adguard бесплатно

Создавать темы 30-Июл-2020 09:58

[Цитировать]

Информация о фильме
Название: Короткометражка Marvel: Забавный случай на пути к молоту Тора
Оригинальное название: Marvel One-Shot: A Funny Thing Happened on the Way to Thor's Hammer
Год выхода: 2011
Жанр: короткометражка, фантастика, боевик
Режиссер: Лейтум
В ролях: Кларк Грегг, Джессика Мануэль, Джефф Прюэтт, Зэк Хадсон
О фильме:
Короткометражка от Marvel Studios, повествующая о том, что случилось с агентом Филом Колсоном, когда он поехал в Пуэнте-Антигуо, Нью-Мексико, осматривать место падения Мьёльнира, молота бога-громовержца Тора.

Страна: США
Продолжительность: 00:04:03
Перевод: Дублированный (профессиональный) | Flarrow Films
Роли озвучивали: Денис Кузьмичёв, Алексей Ядренников, Евгений Леонов и Рина Чернышова
Файл
Формат: MKV
Кодек: MPEG-4 AVC
Качество: BD Remux 1080p (локализованный видеоряд)
Видео: 1920х1080, ~ 19.0 Mb/s, 23.976 FPS, 8 bits
Звук: AC-3, 320 kb/s, 2 channels, 48.0 kHz
Субтитры: Отсутствуют-

MediaInfo

General
Unique ID : 25102063233563939820249261411337961944 (0x12E27B45349C411CD4C3EB64933301D8)
Complete name : C:\Flarrow\Marvel.One-Shot.A.Funny.Thing.Happened.on.the.Way.to.Thor's.Hammer.2011.BDRemux.D.Flarrow.Films.mkv
Format : Matroska
Format version : Version 4
File size : 331 MiB
Duration : 4 min 3 s
Overall bit rate mode : Variable
Overall bit rate : 11.4 Mb/s
Encoded date : UTC 2020-07-29 18:30:13
Writing application : mkvmerge v32.0.0 ('Astral Progressions') 64-bit
Writing library : libebml v1.3.7 + libmatroska v1.5.0
Video
ID : 1
Format : AVC
Format/Info : Advanced Video Codec
Format profile : Main@L4.1
Format settings : CABAC / 2 Ref Frames
Format settings, CABAC : Yes
Format settings, Reference : 2 frames
Format settings, GOP : M=3, N=23
Codec ID : V_MPEG4/ISO/AVC
Duration : 4 min 3 s
Bit rate mode : Variable
Bit rate : 11.1 Mb/s
Maximum bit rate : 19.0 Mb/s
Width : 1 920 pixels
Height : 1 080 pixels
Display aspect ratio : 16:9
Frame rate mode : Constant
Frame rate : 23.976 (24000/1001) FPS
Color space : YUV
Chroma subsampling : 4:2:0
Bit depth : 8 bits
Scan type : Progressive
Bits/(Pixel*Frame) : 0.223
Stream size : 321 MiB (97%)
Language : English
Default : Yes
Forced : No
Audio
ID : 2
Format : AC-3
Format/Info : Audio Coding 3
Commercial name : Dolby Digital
Codec ID : A_AC3
Duration : 4 min 3 s
Bit rate mode : Constant
Bit rate : 320 kb/s
Channel(s) : 2 channels
Channel layout : L R
Sampling rate : 48.0 kHz
Frame rate : 31.250 FPS (1536 SPF)
Compression mode : Lossy
Stream size : 9.29 MiB (3%)
Service kind : Complete Main
Default : Yes
Forced : No
--Релиз от: Flarrow Films
Примечание: Без интро Flarrow Films- -

[korsars.pro].t30714.torrent 
Торрент: Зарегистрирован [ 2020-07-30 09:58 ] · 946BE4E61A7DB9857F29CCF55B71C9B04A84452A

Скачать .torrent

Размер .torrent файла 13 KB

Статус: проверено
.torrent скачан: 11 раз
Размер: 331 MB
Правила
Похожие темы

Вы не зарегистрированы на нашем сайте. Вам доступна для скачивания только часть контента. Чтобы увидеть весь контент сайта, пожалуйста, зарегистрироруйтесь.

У Вас отключен VIP статус, поэтому Вам показывается реклама на сайте. Вы можете поддержать наш ресурс и приобрести VIP статус, тем самым отключив показ рекламы на сайте, а ещё VIP пользователи получают возможность

смотреть фильмы, сериалы и аниме онлайн в HD качестве

(не распространяется на раздел Flarrow Films), а так же получить 5 инвайтов, которыми можно поделиться с друзьями или знакомыми.
[Профиль] [ЛС]
Показать сообщения:    
Ответить на тему

Текущее время: 02-Мар 23:20

Часовой пояс: UTC + 4



Вы не можете начинать темы
Вы не можете отвечать на сообщения
Вы не можете редактировать свои сообщения
Вы не можете удалять свои сообщения
Вы не можете голосовать в опросах
Вы не можете прикреплять файлы к сообщениям
Вы можете скачивать файлы
Анализ сайта korsars.pro Яндекс.Метрика