Короткометражка Marvel: Консультант / Marvel One-Shot: The Consultant (2011) BD Remux 1080p | D | Flarrow Films

Ответить на тему
Статистика раздачи [Обновить пиров]
Размер:  239 MB   |    Зарегистрирован:  7 месяцев 5 дней   |    .torrent скачан:  10 раз
Раздают:  8  [  0 KB/s  ]   Качают:  2  [  0 KB/s  ]   Подробная статистика пиров
 
   
 
 
Автор Сообщение

flarrowfilms ®

Оффлайн

Медали
VIPДруг трекераСупер Мега Контер Квейк


Пол: Не указан

Стаж: 11 месяцев 9 дней

Наличие запрета:

Сообщений: 71

Отдача: 5 Mb/s

Загрузка: 5 Mb/s

Нажми


Скачать Adguard бесплатно

Создавать темы 28-Июл-2020 00:21

[Цитировать]

Информация о фильме
Название: Короткометражка Marvel: Консультант
Оригинальное название: Marvel One-Shot: The Consultant
Год выхода: 2011
Жанр: короткометражка, фантастика
Режиссер: Лейтум
В ролях: Кларк Грегг, Максимилиано Эрнандес, Дебра Нокс, Роберт Дауни мл., Уильям Хёрт
О фильме:
Пуэнте-Антигуо, Нью-Мексико. Агент Фил Колсон встречается в ресторане с агентом Джаспером Ситуэллом, и сообщает ему о том, что по требованию совета Мировой безопасности в команду должен вступить Эмиль Блонски. Директор Фьюри никак не может игнорировать этот указ. Задача агентов послать своего человека к генералу Россу и убедить его передать Блонски под охрану Щ.И.Т.

Страна: США
Продолжительность: 00:03:57
Перевод: Дублированный (профессиональный) | Flarrow Films
Роли озвучивали: Денис Кузьмичёв, Ахилл Намазов, Константин Федосеев и Максим Жидков
Файл
Формат: MKV
Кодек: MPEG-4 AVC
Качество: BD Remux 1080p (локализованный видеоряд)
Видео: 1920х1080, ~ 8 123 kb/s, 23.976 FPS, 8 bits
Звук: AC-3, 320 kb/s, 2 channels, 48.0 kHz
Субтитры: русские (отключаемые UTF-8)-

MediaInfo

General
Unique ID : 96197522571373017369435105638199459967 (0x485EF80BC55009D6274823CB696A007F)
Complete name : C:\Flarrow\Короткометражка.Marvel.Консультант.(2011).BD Remux.D.Flarrow.Films.mkv
Format : Matroska
Format version : Version 4
File size : 239 MiB
Duration : 3 min 57 s
Overall bit rate mode : Variable
Overall bit rate : 8 445 kb/s
Encoded date : UTC 2020-07-27 19:06:38
Writing application : mkvmerge v32.0.0 ('Astral Progressions') 64-bit
Writing library : libebml v1.3.7 + libmatroska v1.5.0
Video
ID : 1
Format : AVC
Format/Info : Advanced Video Codec
Format profile : Main@L4.1
Format settings : CABAC / 2 Ref Frames
Format settings, CABAC : Yes
Format settings, Reference frames : 2 frames
Format settings, GOP : M=3, N=23
Codec ID : V_MPEG4/ISO/AVC
Duration : 3 min 57 s
Bit rate mode : Variable
Bit rate : 8 123 kb/s
Maximum bit rate : 12.0 Mb/s
Width : 1 920 pixels
Height : 1 080 pixels
Display aspect ratio : 16:9
Frame rate mode : Constant
Frame rate : 23.976 (24000/1001) FPS
Color space : YUV
Chroma subsampling : 4:2:0
Bit depth : 8 bits
Scan type : Progressive
Bits/(Pixel*Frame) : 0.163
Stream size : 230 MiB (96%)
Language : English
Default : Yes
Forced : No
Audio
ID : 2
Format : AC-3
Format/Info : Audio Coding 3
Commercial name : Dolby Digital
Codec ID : A_AC3
Duration : 3 min 57 s
Bit rate mode : Constant
Bit rate : 320 kb/s
Channel(s) : 2 channels
Channel layout : L R
Sampling rate : 48.0 kHz
Frame rate : 31.250 FPS (1536 SPF)
Compression mode : Lossy
Stream size : 9.04 MiB (4%)
Service kind : Complete Main
Default : Yes
Forced : No
Text
ID : 3
Format : UTF-8
Codec ID : S_TEXT/UTF8
Codec ID/Info : UTF-8 Plain Text
Duration : 3 min 36 s
Bit rate : 145 b/s
Count of elements : 64
Stream size : 3.86 KiB (0%)
Language : Russian
Default : Yes
Forced : No
--Релиз от: Flarrow Films
Примечание: Без интро Flarrow Films- -

[korsars.pro].t30648.torrent 
Торрент: Зарегистрирован [ 2020-07-28 00:21 ] · D4DCF1D0AA23CB48CBA377CC8FC22662BED4279D

Скачать .torrent

Размер .torrent файла 19 KB

Статус: проверено
.torrent скачан: 10 раз
Размер: 239 MB
Правила
4udaki(28-Июл-20)
Похожие темы

Вы не зарегистрированы на нашем сайте. Вам доступна для скачивания только часть контента. Чтобы увидеть весь контент сайта, пожалуйста, зарегистрироруйтесь.

У Вас отключен VIP статус, поэтому Вам показывается реклама на сайте. Вы можете поддержать наш ресурс и приобрести VIP статус, тем самым отключив показ рекламы на сайте, а ещё VIP пользователи получают возможность

смотреть фильмы, сериалы и аниме онлайн в HD качестве

(не распространяется на раздел Flarrow Films), а так же получить 5 инвайтов, которыми можно поделиться с друзьями или знакомыми.
[Профиль] [ЛС]
Показать сообщения:    
Ответить на тему

Текущее время: 02-Мар 23:54

Часовой пояс: UTC + 4



Вы не можете начинать темы
Вы не можете отвечать на сообщения
Вы не можете редактировать свои сообщения
Вы не можете удалять свои сообщения
Вы не можете голосовать в опросах
Вы не можете прикреплять файлы к сообщениям
Вы можете скачивать файлы
Анализ сайта korsars.pro Яндекс.Метрика