Лига справедливости: Парадокс источника конфликта / Justice League: The Flashpoint Paradox (2013) BDRip 1080p | Flarrow Films

Ответить на тему
Статистика раздачи [Обновить пиров]
Размер:  3,69 GB   |    Зарегистрирован:  7 месяцев 14 дней   |    .torrent скачан:  5 раз
Раздают:  27  [  0 KB/s  ]   Качают:  7  [  0 KB/s  ]   Подробная статистика пиров
 
   
 
 
Автор Сообщение

flarrowfilms ®

Оффлайн

Медали
VIPДруг трекераСупер Мега Контер Квейк


Пол: Не указан

Стаж: 11 месяцев 13 дней

Наличие запрета:

Сообщений: 71

Отдача: 5 Mb/s

Загрузка: 5 Mb/s

Нажми


Скачать Adguard бесплатно

Создавать темы 23-Июл-2020 19:17

[Цитировать]

Информация о фильме
Название: Лига справедливости: Парадокс источника конфликта
Оригинальное название: Justice League: The Flashpoint Paradox
Год выхода: 2013
Жанр: мультфильм, фантастика, фэнтези, боевик, приключения
Режиссер: Джей Олива
В ролях: Джастин Чэмберс, Си Томас Хауэлл, Майкл Б. Джордан, Кевин МакКидд, Ди Брэдли Бейкер, Стивен Блум, Кевин Конрой, Сэм Дэйли, Дана Дилэйни, Грэй ДеЛисл
О фильме:
Миллионы людей в нашем мире ссорятся по тем или иным причинам. Кто-то умеет мирно разрешать конфликты, кто-то же привык решать все проблемы «на кулаках». Но мало кто верит в существование истинной справедливости, однако команда супергероев всегда готова подтвердить, что справедливость все же, существует. Отважные спасатели бросаются на помощь к тем, кто пострадал от незаконных или нечестных действий злодеев, они очищают мир от негодяев, делая его более добрым и светлым.

Страна: США
Продолжительность: 01:21:15
Перевод: Профессиональный (многоголосый, закадровый) | Flarrow Films
Роли озвучивали:: Ахилл Намазов, Глеб Петров, Антон Алёхин, Анастасия Скачкова, Семён Евсиков, Виталий Кашеваров, Дмитрий Савкин, Рута Новикова, Рина Чернышова, Денис Кузьмичёв, Евгений Леонов и Дмитрий Зверев.
Файл
Формат: MKV
Кодек: MPEG-4 AVC
Качество: BDRip 1080p
Видео: 1920х1080, ~ 6 189 kb/s, 23.976 FPS, 8 bits
Звук: AC-3, 320 kb/s, 2 channels, 48.0 kHz
Субтитры: отсутствуют-

MediaInfo

General
Unique ID : 30183251236444833408134986412680576901 (0x16B5152E494C5E045DDCD19563547F85)
Complete name : C:FlarrowJustice.League.The.Flashpoint.Paradox.2013.1080p.Flarrow.Films.mkv
Format : Matroska
Format version : Version 4
File size : 3.69 GiB
Duration : 1 h 21 min
Overall bit rate : 6 508 kb/s
Encoded date : UTC 2020-07-23 08:44:02
Writing application : mkvmerge v32.0.0 ('Astral Progressions') 64-bit
Writing library : libebml v1.3.7 + libmatroska v1.5.0
Video
ID : 1
Format : AVC
Format/Info : Advanced Video Codec
Format profile : High@L4.1
Format settings : CABAC / 4 Ref Frames
Format settings, CABAC : Yes
Format settings, Reference : 4 frames
Codec ID : V_MPEG4/ISO/AVC
Duration : 1 h 21 min
Bit rate : 6 189 kb/s
Width : 1 920 pixels
Height : 1 080 pixels
Display aspect ratio : 16:9
Frame rate mode : Constant
Frame rate : 23.976 FPS
Color space : YUV
Chroma subsampling : 4:2:0
Bit depth : 8 bits
Scan type : Progressive
Bits/(Pixel*Frame) : 0.124
Stream size : 3.51 GiB (95%)
Title : X264
Writing library : x264 core 133 r2334 a3ac64b
Encoding settings : cabac=1 / ref=4 / deblock=1:0:0 / analyse=0x3:0x133 / me=umh / subme=7 / psy=1 / psy_rd=1.00:0.00 / mixed_ref=1 / me_range=16 / chroma_me=1 / trellis=1 / 8x8dct=1 / cqm=0 / deadzone=21,11 / fast_pskip=0 / chroma_qp_offset=-2 / threads=36 / lookahead_threads=6 / sliced_threads=0 / nr=0 / decimate=1 / interlaced=0 / bluray_compat=0 / constrained_intra=0 / bframes=3 / b_pyramid=2 / b_adapt=1 / b_bias=0 / direct=1 / weightb=1 / open_gop=0 / weightp=2 / keyint=250 / keyint_min=23 / scenecut=40 / intra_refresh=0 / rc_lookahead=40 / rc=2pass / mbtree=1 / bitrate=6189 / ratetol=1.0 / qcomp=0.60 / qpmin=0 / qpmax=69 / qpstep=4 / cplxblur=20.0 / qblur=0.5 / ip_ratio=1.40 / aq=1:1.00
Language : English
Default : Yes
Forced : No
Audio
ID : 2
Format : AC-3
Format/Info : Audio Coding 3
Commercial name : Dolby Digital
Codec ID : A_AC3
Duration : 1 h 21 min
Bit rate mode : Constant
Bit rate : 320 kb/s
Channel(s) : 2 channels
Channel layout : L R
Sampling rate : 48.0 kHz
Frame rate : 31.250 FPS (1536 SPF)
Compression mode : Lossy
Stream size : 186 MiB (5%)
Service kind : Complete Main
Default : Yes
Forced : No
--Релиз от: Flarrow Films
Примечание: Без интро Flarrow Films- -

[korsars.pro].t30539.torrent 
Торрент: Зарегистрирован [ 2020-07-23 19:17 ] · BF0C01580EA432F962C9D2CDA3F2B1FB5AE06C09

Скачать .torrent

Размер .torrent файла 19 KB

Статус: проверено
.torrent скачан: 5 раз
Размер: 3,69 GB
Правила
Похожие темы

Вы не зарегистрированы на нашем сайте. Вам доступна для скачивания только часть контента. Чтобы увидеть весь контент сайта, пожалуйста, зарегистрироруйтесь.

У Вас отключен VIP статус, поэтому Вам показывается реклама на сайте. Вы можете поддержать наш ресурс и приобрести VIP статус, тем самым отключив показ рекламы на сайте, а ещё VIP пользователи получают возможность

смотреть фильмы, сериалы и аниме онлайн в HD качестве

(не распространяется на раздел Flarrow Films), а так же получить 5 инвайтов, которыми можно поделиться с друзьями или знакомыми.
[Профиль] [ЛС]
Показать сообщения:    
Ответить на тему

Текущее время: 07-Мар 18:53

Часовой пояс: UTC + 4



Вы не можете начинать темы
Вы не можете отвечать на сообщения
Вы не можете редактировать свои сообщения
Вы не можете удалять свои сообщения
Вы не можете голосовать в опросах
Вы не можете прикреплять файлы к сообщениям
Вы можете скачивать файлы
Анализ сайта korsars.pro Яндекс.Метрика