Вступай в стаю! Школа Сэтон / Murenase! Seton Gakuen [S01] (2020) BDRip 1080p от KORSARS.INFO | Crunchyroll

Ответить на тему
Статистика раздачи [Обновить пиров]
Размер:  9,79 GB   |    Зарегистрирован:  1 год 4 месяца   |    .torrent скачан:  25 раз
Раздают:  8  [  0 KB/s  ]   Качают:  10  [  0 KB/s  ]   Подробная статистика пиров
 
   
 
 
Автор Сообщение

4udaki ®

Оффлайн

Медали


Пол: Мужской

Стаж: 7 лет 1 месяц

Наличие запрета:

Сообщений: 12166

Откуда: korsars.pro

Отдача: 2 Mb/s

Загрузка: 20 Mb/s

Нажми


Скачать Adguard бесплатно

Создавать темы 18-Июл-2020 13:25

[Цитировать]

Вступай в стаю! Школа Сэтон / Murenase! Seton Gakuen-Год выпуска: 2020
Страна:
Япония
Жанр: комедия, школа
Продолжительность: ~ 00:24:00 (серия)
Перевод: Профессиональный (многоголосый, закадровый) | Crunchyroll
Режиссёр: Хироси Икэхата
Субтитры: отсутствуют-Рейтинг:
-Релиз от:
Ретайминг аудиодорожек под BD: DS290200-Описание:
Добро пожаловать в частную школу Сэтон, где вся жизнь — сплошной естественный отбор, ведь обучаются здесь всевозможные представители фауны! Есть и зебры с лошадьми, и медведи, учитель — тирранозавр, а директор вообще аномалокарис. И вот, в эту странную школу поступают целых два человека, Дзин Мадзама и Хитоми Хино... но это далеко не все странности, которые ждут нас в этом учебном заведении! © Crunchyroll-Качество: BDRip 1080p
Формат: MKV (MPEG-4 AVC)
Видео: 1920x1080, ~4 000 kb/s, 23.976 FPS
Аудио RUS: AAC LC, 149 kb/s, 2 channels, 44.1 kHz-

MediaInfo

General
Complete name               : D:\Downloads\Anime\[KORSARS&DS290200]_Murenase.Seton.Gakuen.[S01].BDRip.1080p_[Crunchyroll]\[KORSARS&DS290200]_Murenase.Seton.Gakuen.[S01E01].BDRip.1080p_[Crunchyroll].mkv
Format                      : Matroska
Format version              : Version 4
File size                   : 828 MiB
Duration                    : 23 min 42 s
Overall bit rate            : 4 882 kb/s
Movie name                  : [KORSARS&DS290200]_Murenase.Seton.Gakuen.[S01E01].BDRip.1080p_[Crunchyroll]
Encoded date                : UTC 2020-07-18 08:18:20
Writing application         : mkvmerge v48.0.0 ('Fortress Around Your Heart') 64-bit
Writing library             : libebml v1.4.0 + libmatroska v1.6.0
Video
ID                          : 1
Format                      : AVC
Format/Info                 : Advanced Video Codec
Format profile              : High@L4
Format settings             : CABAC / 4 Ref Frames
Format settings, CABAC      : Yes
Format settings, Reference  : 4 frames
Codec ID                    : V_MPEG4/ISO/AVC
Duration                    : 23 min 41 s
Bit rate                    : 4 731 kb/s
Width                       : 1 920 pixels
Height                      : 1 080 pixels
Display aspect ratio        : 16:9
Frame rate mode             : Constant
Frame rate                  : 23.976 (24000/1001) FPS
Color space                 : YUV
Chroma subsampling          : 4:2:0
Bit depth                   : 8 bits
Scan type                   : Progressive
Bits/(Pixel*Frame)          : 0.095
Stream size                 : 802 MiB (97%)
Title                       : [KORSARS&DS290200]_Murenase.Seton.Gakuen.[S01E01].BDRip.1080p_[Crunchyroll]
Writing library             : x264 core 157
Encoding settings           : opencl=1 / cabac=1 / ref=4 / deblock=1:-2:-2 / analyse=0x3:0x113 / me=umh / subme=9 / psy=1 / psy_rd=0.70:0.00 / mixed_ref=0 / me_range=32 / chroma_me=1 / trellis=2 / 8x8dct=1 / cqm=0 / deadzone=21,11 / fast_pskip=1 / chroma_qp_offset=-2 / threads=8 / lookahead_threads=1 / sliced_threads=0 / nr=0 / decimate=1 / interlaced=0 / bluray_compat=0 / constrained_intra=0 / bframes=9 / b_pyramid=2 / b_adapt=2 / b_bias=0 / direct=3 / weightb=1 / open_gop=0 / weightp=2 / keyint=250 / keyint_min=23 / scenecut=40 / intra_refresh=0 / rc_lookahead=40 / rc=crf / mbtree=1 / crf=16.0 / qcomp=0.70 / qpmin=10 / qpmax=20 / qpstep=4 / ip_ratio=1.40 / aq=1:1.00
Default                     : Yes
Forced                      : No
Audio
ID                          : 2
Format                      : AAC LC
Format/Info                 : Advanced Audio Codec Low Complexity
Codec ID                    : A_AAC-2
Duration                    : 23 min 42 s
Bit rate                    : 149 kb/s
Channel(s)                  : 2 channels
Channel layout              : L R
Sampling rate               : 44.1 kHz
Frame rate                  : 43.066 FPS (1024 SPF)
Compression mode            : Lossy
Stream size                 : 25.3 MiB (3%)
Title                       : [KORSARS&DS290200]_Murenase.Seton.Gakuen.[S01E01].BDRip.1080p_[Crunchyroll]
Default                     : Yes
Forced                      : No
-

Скриншоты

-Финансовая помощь автору
[korsars.pro].t30418.torrent 
Торрент: Зарегистрирован [ 2020-07-18 13:25 ] · 837B5A03196CDFBDAECCA69524C551711CFA59FE

Скачать .torrent

Размер .torrent файла 26 KB

Статус: проверено
.torrent скачан: 25 раз
Размер: 9,79 GB
Правила
Rentgen(18-Июл-20), loe3df(19-Июл-20), deadmauvlad(19-Июл-20)

Вы не зарегистрированы на нашем сайте. Вам доступна для скачивания только часть контента. Чтобы увидеть весь контент сайта, пожалуйста, зарегистрироруйтесь.

Дешевый и быстрый Сидбокс

Ключи и пин-коды

Игры, Кредитные карты, IP-телефония, Интернет провайдеры, Мобильная связь, Спутниковое ТВ

Электронные книги

Бизнес и экономика, Дом, быт, семья, досуг, Санкт-Петербург, Компьютеры и интернет, Наука и образование, Техническая литература, Юридическая литература

Цифровые товары

iTunes & App Store, Базы данных, Дизайн, Доступ к ресурсам, Kарты продления, ключи, Фотографии, Шаблоны для сайтов

Программное обеспечение

Безопасность, Игры, PC, Интернет, Мобильная связь, Программирование, Продвижение сайтов (SEO), Утилиты
У Вас отключен VIP статус, поэтому Вам показывается реклама на сайте. Вы можете поддержать наш ресурс и приобрести VIP статус, тем самым отключив показ рекламы на сайте, а ещё VIP пользователи получают возможность

смотреть аниме онлайн в HD качестве

(не распространяется на раздел Flarrow Films), а так же получить 5 инвайтов, которыми можно поделиться с друзьями или знакомыми.
Дешевый и быстрый Сидбокс

Ключи и пин-коды

Игры, Кредитные карты, IP-телефония, Интернет провайдеры, Мобильная связь, Спутниковое ТВ

Электронные книги

Бизнес и экономика, Дом, быт, семья, досуг, Санкт-Петербург, Компьютеры и интернет, Наука и образование, Техническая литература, Юридическая литература

Цифровые товары

iTunes & App Store, Базы данных, Дизайн, Доступ к ресурсам, Kарты продления, ключи, Фотографии, Шаблоны для сайтов

Программное обеспечение

Безопасность, Игры, PC, Интернет, Мобильная связь, Программирование, Продвижение сайтов (SEO), Утилиты
[Профиль] [ЛС]
Показать сообщения:    
Ответить на тему

Текущее время: 06-Дек 21:17

Часовой пояс: UTC + 4



Вы не можете начинать темы
Вы не можете отвечать на сообщения
Вы не можете редактировать свои сообщения
Вы не можете удалять свои сообщения
Вы не можете голосовать в опросах
Вы не можете прикреплять файлы к сообщениям
Вы можете скачивать файлы
Анализ сайта korsars.pro Яндекс.Метрика