Ван-Пис / One Piece [861-891] (2018-2019) WEBRip 1080p | StudioBand

Ответить на тему
Статистика раздачи [Обновить пиров]
Размер:  31,4 GB   |    Зарегистрирован:  1 год 4 месяца   |    .torrent скачан:  19 раз

Полного источника не было: 8 месяцев 5 дней

Качают:  1  [  0 KB/s  ]   Подробная статистика пиров
 
   
 
 
 
Автор Сообщение

loe3df ®

Оффлайн

Медали
VIPАктивный раздающий 1Активный раздающий 2
Активный релизер Аниме (100)Активный релизер Аниме (50)Орденосец 1 степени


Пол: Не указан

Стаж: 1 год 10 месяцев

Наличие запрета:

Сообщений: 452

Откуда: Die Welt von Hentai

Отдача: не определено

Загрузка: не определено

Нажми


Скачать Adguard бесплатно

Создавать темы 16-Июл-2020 14:24

[Цитировать]

Ван-Пис / One Piece- Год выпуска: 2018-2019
Страна: Япония
Жанр: приключения, комедия, фэнтези, сёнэн
Продолжительность: ~ 00:23:55 (серия)
Перевод: Дубляж | StudioBand [Wakanim]
Режиссёр: Коносукэ Уда
Субтитры: Русские (встроенные полный перевод, ASS)-Рейтинг:
-Описание:
Последние слова, произнесенные Королем Пиратов перед казнью, вдохновили многих: «Мои сокровища? Коли хотите, забирайте. Ищите – я их все оставил там!». Легендарная фраза Золотого Роджера ознаменовала начало Великой Эры Пиратов – тысячи людей в погоне за своими мечтами отправились на Гранд Лайн, самое опасное место в мире, желая стать обладателями мифических сокровищ... Но с каждым годом романтиков становилось все меньше, их постепенно вытесняли прагматичные пираты-разбойники, которым награбленное добро было куда ближе, чем какие-то «никчемные мечты». Но вот, одним прекрасным днем, семнадцатилетний Монки Д. Луффи исполнил заветную мечту детства - отправился в море. Его цель - ни много, ни мало стать новым Королем Пиратов. За достаточно короткий срок юному капитану удается собрать команду, состоящую из не менее амбициозных искателей приключений. И пусть ими движут совершенно разные устремления, главное, этим ребятам важны не столько деньги и слава, сколько куда более ценное – принципы и верность друзьям. И еще – служение Мечте. Что ж, пока по Гранд Лайн плавают такие люди, Великая Эра Пиратов всегда будет с нами!-Качество: WEBRip 1080p
Формат: MKV (MPEG-4 AVC)
Видео: 1920x1080, ~ 5 500 kb/s, 23.976 FPS. 8 bits
Аудио RUS: AC3, ~ 192 kb/s, 2 channels, 48.0 kHz
Аудио JAP: AC3, ~ 192 kb/s, 2 channels, 48.0 kHz-

Скриншоты

MediaInfo

General
Unique ID : 169031463332668951119543545394408501625 (0x7F2A4692CE9BBD5EC709E4B598E0B179)
Complete name : One Piece [1080p]\One Piece 861 [1080p].mkv
Format : Matroska
Format version : Version 4
File size : 1 007 MiB
Duration : 23 min 55 s
Overall bit rate : 5 887 kb/s
Encoded date : UTC 2019-01-12 06:30:25
Writing application : mkvmerge v30.1.0 ('Forever And More') 64-bit
Writing library : libebml v1.3.6 + libmatroska v1.4.9
Attachments : OpenSans-Semibold.ttf
Video
ID : 1
Format : AVC
Format/Info : Advanced Video Codec
Format profile : High@L4
Format settings : CABAC / 4 Ref Frames
Format settings, CABAC : Yes
Format settings, Reference frames : 4 frames
Codec ID : V_MPEG4/ISO/AVC
Duration : 23 min 55 s
Bit rate : 5 500 kb/s
Width : 1 920 pixels
Height : 1 080 pixels
Display aspect ratio : 16:9
Frame rate mode : Constant
Frame rate : 23.976 (24000/1001) FPS
Color space : YUV
Chroma subsampling : 4:2:0
Bit depth : 8 bits
Scan type : Progressive
Bits/(Pixel*Frame) : 0.111
Stream size : 941 MiB (93%)
Writing library : x264 core 142
Encoding settings : cabac=1 / ref=4 / deblock=1:1:1 / analyse=0x3:0x113 / me=umh / subme=8 / psy=1 / psy_rd=0.40:0.00 / mixed_ref=1 / me_range=16 / chroma_me=1 / trellis=1 / 8x8dct=1 / cqm=0 / deadzone=21,11 / fast_pskip=1 / chroma_qp_offset=-2 / threads=12 / lookahead_threads=2 / sliced_threads=0 / nr=0 / decimate=1 / interlaced=0 / bluray_compat=0 / constrained_intra=0 / bframes=3 / b_pyramid=2 / b_adapt=2 / b_bias=0 / direct=3 / weightb=1 / open_gop=0 / weightp=2 / keyint=48 / keyint_min=25 / scenecut=0 / intra_refresh=0 / rc_lookahead=48 / rc=crf / mbtree=1 / crf=15.0 / qcomp=0.60 / qpmin=0 / qpmax=69 / qpstep=4 / vbv_maxrate=8000 / vbv_bufsize=12000 / crf_max=0.0 / nal_hrd=none / filler=0 / ip_ratio=1.40 / aq=1:0.60
Default : Yes
Forced : No
Audio #1
ID : 2
Format : AC-3
Format/Info : Audio Coding 3
Commercial name : Dolby Digital
Codec ID : A_AC3
Duration : 23 min 55 s
Bit rate mode : Constant
Bit rate : 192 kb/s
Channel(s) : 2 channels
Channel layout : L R
Sampling rate : 48.0 kHz
Frame rate : 31.250 FPS (1536 SPF)
Bit depth : 16 bits
Compression mode : Lossy
Delay relative to video : -83 ms
Stream size : 32.9 MiB (3%)
Language : Russian
Service kind : Complete Main
Default : Yes
Forced : No
Audio #2
ID : 4
Format : AC-3
Format/Info : Audio Coding 3
Commercial name : Dolby Digital
Codec ID : A_AC3
Duration : 23 min 55 s
Bit rate mode : Constant
Bit rate : 192 kb/s
Channel(s) : 2 channels
Channel layout : L R
Sampling rate : 48.0 kHz
Frame rate : 31.250 FPS (1536 SPF)
Bit depth : 16 bits
Compression mode : Lossy
Delay relative to video : -83 ms
Stream size : 32.9 MiB (3%)
Language : Japanese
Service kind : Complete Main
Default : No
Forced : No
Text
ID : 3
Format : ASS
Codec ID : S_TEXT/ASS
Codec ID/Info : Advanced Sub Station Alpha
Duration : 23 min 29 s
Bit rate : 356 b/s
Count of elements : 514
Compression mode : Lossless
Stream size : 61.3 KiB (0%)
Language : Russian
Default : Yes
Forced : No
[korsars.pro].t30356.torrent 
Торрент: Зарегистрирован [ 2020-07-16 14:24 ] · 63C3CFAD0AD4A873FBF29F37BC124D550790687A

Скачать .torrent

Размер .torrent файла 81 KB

Статус: проверено
.torrent скачан: 19 раз
Размер: 31,4 GB
Правила
Rentgen(16-Июл-20), 4udaki(16-Июл-20), ellolait(28-Фев-21)
Похожие темы

Вы не зарегистрированы на нашем сайте. Вам доступна для скачивания только часть контента. Чтобы увидеть весь контент сайта, пожалуйста, зарегистрироруйтесь.

Дешевый и быстрый Сидбокс

Ключи и пин-коды

Игры, Кредитные карты, IP-телефония, Интернет провайдеры, Мобильная связь, Спутниковое ТВ

Электронные книги

Бизнес и экономика, Дом, быт, семья, досуг, Санкт-Петербург, Компьютеры и интернет, Наука и образование, Техническая литература, Юридическая литература

Цифровые товары

iTunes & App Store, Базы данных, Дизайн, Доступ к ресурсам, Kарты продления, ключи, Фотографии, Шаблоны для сайтов

Программное обеспечение

Безопасность, Игры, PC, Интернет, Мобильная связь, Программирование, Продвижение сайтов (SEO), Утилиты
У Вас отключен VIP статус, поэтому Вам показывается реклама на сайте. Вы можете поддержать наш ресурс и приобрести VIP статус, тем самым отключив показ рекламы на сайте, а ещё VIP пользователи получают возможность

смотреть аниме онлайн в HD качестве

(не распространяется на раздел Flarrow Films), а так же получить 5 инвайтов, которыми можно поделиться с друзьями или знакомыми.
Дешевый и быстрый Сидбокс

Ключи и пин-коды

Игры, Кредитные карты, IP-телефония, Интернет провайдеры, Мобильная связь, Спутниковое ТВ

Электронные книги

Бизнес и экономика, Дом, быт, семья, досуг, Санкт-Петербург, Компьютеры и интернет, Наука и образование, Техническая литература, Юридическая литература

Цифровые товары

iTunes & App Store, Базы данных, Дизайн, Доступ к ресурсам, Kарты продления, ключи, Фотографии, Шаблоны для сайтов

Программное обеспечение

Безопасность, Игры, PC, Интернет, Мобильная связь, Программирование, Продвижение сайтов (SEO), Утилиты
[Профиль] [ЛС]

ellolait

Оффлайн

Медали
VIP


Пол: Мужской

Стаж: 1 год 7 месяцев

Наличие запрета:

Сообщений: 48

Отдача: 100 Mb/s

Загрузка: 100 Mb/s

Нажми


Скачать Adguard бесплатно

Создавать темы 28-Фев-2021 22:10 (спустя 7 месяцев 12 дней)

[Цитировать]

Выкачал наконец с другого источника, по возможности буду раздавать, если вдруг сида нет несколько дней, пишите мне в лс.
[Профиль] [ЛС]
Показать сообщения:    
Ответить на тему

Текущее время: 09-Дек 17:28

Часовой пояс: UTC + 4



Вы не можете начинать темы
Вы не можете отвечать на сообщения
Вы не можете редактировать свои сообщения
Вы не можете удалять свои сообщения
Вы не можете голосовать в опросах
Вы не можете прикреплять файлы к сообщениям
Вы можете скачивать файлы
Анализ сайта korsars.pro Яндекс.Метрика