Веселые мелодии: Мультфильмы / Луни Тюнз / Looney Tunes: Cartoons [S01] (2020) WEBRip 1080p | D | Flarrow Films

Ответить на тему
Статистика раздачи [Обновить пиров]
Размер:  11,31 GB   |    Зарегистрирован:  1 год 4 месяца   |    .torrent скачан:  34 раза

Полного источника не было: 8 месяцев 22 дня

Качают:  6  [  0 KB/s  ]   Подробная статистика пиров
 
   
 
 
 
Автор Сообщение

flarrowfilms ®

Оффлайн

Медали
VIPДруг трекераСупер Мега Контер Квейк


Пол: Не указан

Стаж: 1 год 8 месяцев

Наличие запрета:

Сообщений: 104

Отдача: 5 Mb/s

Загрузка: 5 Mb/s

Нажми


Скачать Adguard бесплатно

Создавать темы 15-Июл-2020 21:45

[Цитировать]

Информация о фильме
Название: Веселые мелодии: Мультфильмы
Оригинальное название: Looney Tunes: Cartoons
Год выхода: 2020
Жанр: мультфильм, короткометражка, комедия, приключения, семейный
Режиссеры: Райан Крамер, Кенни Питтенгер, Дэвид Геммилл
В ролях: Эрик Бауза, Джефф Бергман, Боб Берген
О фильме:
Мультфильмы Луни Тюнз. Серия короткометражных мультфильмов с участием знаменитых и любимых персонажей. Багз Банни, Даффи Дак, Порки Пиг и другие персонажи будут представлены в их классических парах в простых, увлекательных и визуально ярких историях.

Страна: США
Продолжительность: ~ 00:12:34 (серия)
Перевод: Дублированный (профессиональный) | Flarrow Films
Роли озвучивали: Ахилл Намазов, Евгений Леонов, Денис Кузьмичёв, Константин Федосеев, Дмитрий Лунёв, Глеб Петров, Маргарита Щелкунова, Екатерина Муравицкая, Антон Макаров, Алексей Ядренников и Андрей Маслов.
Файл
Формат: MKV
Кодек: MPEG-4 AVC
Качество: WEBRip 1080p (локализованный видеоряд)
Видео: 1920х1080, ~ 19.0 Mb/s, 23.976 FPS, 8 bits
Звук: AC-3, 320 kb/s, 2 channel, 48.0 kHz
Субтитры: отсутствуют
Сэмпл: скачать-

MediaInfo

General
Unique ID : 77927869897568916195327040246247025994 (0x3AA05C9FD457B3BD5591F60F7E7B6D4A)
Complete name : C:\Flarrow\Looney.Tunes.Cartoons.S01.1080p.D.Flarrow.Films\Луни Тюнз 1.mkv
Format : Matroska
Format version : Version 4
File size : 1.15 GiB
Duration : 11 min 44 s
Overall bit rate mode : Variable
Overall bit rate : 14.0 Mb/s
Encoded date : UTC 2020-06-07 15:48:23
Writing application : mkvmerge v32.0.0 ('Astral Progressions') 64-bit
Writing library : libebml v1.3.7 + libmatroska v1.5.0
Video
ID : 1
Format : AVC
Format/Info : Advanced Video Codec
Format profile : Main@L4.1
Format settings : CABAC / 2 Ref Frames
Format settings, CABAC : Yes
Format settings, Reference : 2 frames
Format settings, GOP : M=3, N=23
Codec ID : V_MPEG4/ISO/AVC
Duration : 11 min 44 s
Bit rate mode : Variable
Bit rate : 13.7 Mb/s
Maximum bit rate : 19.0 Mb/s
Width : 1 920 pixels
Height : 1 080 pixels
Display aspect ratio : 16:9
Frame rate mode : Constant
Frame rate : 23.976 (24000/1001) FPS
Color space : YUV
Chroma subsampling : 4:2:0
Bit depth : 8 bits
Scan type : Progressive
Bits/(Pixel*Frame) : 0.276
Stream size : 1.13 GiB (98%)
Language : English
Default : Yes
Forced : No
Audio
ID : 2
Format : AC-3
Format/Info : Audio Coding 3
Commercial name : Dolby Digital
Codec ID : A_AC3
Duration : 11 min 44 s
Bit rate mode : Constant
Bit rate : 320 kb/s
Channel(s) : 2 channels
Channel layout : L R
Sampling rate : 48.0 kHz
Frame rate : 31.250 FPS (1536 SPF)
Compression mode : Lossy
Stream size : 26.9 MiB (2%)
Service kind : Complete Main
Default : Yes
Forced : No
--Релиз от: Flarrow Films
Примечание:Без интро Flarrow Films- -
[korsars.pro].t30338.torrent 
Торрент: Зарегистрирован [ 2020-07-15 21:45 ] · D01998A70FD4DA9080D0F25B1A3E24BBFCAD3CEF

Скачать .torrent

Размер .torrent файла 29 KB

Статус: проверено
.torrent скачан: 34 раз
Размер: 11,31 GB
Правила
Rezident09(14-Мар-21)
Похожие темы

Вы не зарегистрированы на нашем сайте. Вам доступна для скачивания только часть контента. Чтобы увидеть весь контент сайта, пожалуйста, зарегистрироруйтесь.

Дешевый и быстрый Сидбокс

Ключи и пин-коды

Игры, Кредитные карты, IP-телефония, Интернет провайдеры, Мобильная связь, Спутниковое ТВ

Электронные книги

Бизнес и экономика, Дом, быт, семья, досуг, Санкт-Петербург, Компьютеры и интернет, Наука и образование, Техническая литература, Юридическая литература

Цифровые товары

iTunes & App Store, Базы данных, Дизайн, Доступ к ресурсам, Kарты продления, ключи, Фотографии, Шаблоны для сайтов

Программное обеспечение

Безопасность, Игры, PC, Интернет, Мобильная связь, Программирование, Продвижение сайтов (SEO), Утилиты
У Вас отключен VIP статус, поэтому Вам показывается реклама на сайте. Вы можете поддержать наш ресурс и приобрести VIP статус, тем самым отключив показ рекламы на сайте, а ещё VIP пользователи получают возможность

смотреть аниме онлайн в HD качестве

(не распространяется на раздел Flarrow Films), а так же получить 5 инвайтов, которыми можно поделиться с друзьями или знакомыми.
Дешевый и быстрый Сидбокс

Ключи и пин-коды

Игры, Кредитные карты, IP-телефония, Интернет провайдеры, Мобильная связь, Спутниковое ТВ

Электронные книги

Бизнес и экономика, Дом, быт, семья, досуг, Санкт-Петербург, Компьютеры и интернет, Наука и образование, Техническая литература, Юридическая литература

Цифровые товары

iTunes & App Store, Базы данных, Дизайн, Доступ к ресурсам, Kарты продления, ключи, Фотографии, Шаблоны для сайтов

Программное обеспечение

Безопасность, Игры, PC, Интернет, Мобильная связь, Программирование, Продвижение сайтов (SEO), Утилиты
[Профиль] [ЛС]

Rezident09

Оффлайн

Медали


Пол: Мужской

Стаж: 1 год 8 месяцев

Наличие запрета:

Сообщений: 4

Откуда: Северный Кавказ

Отдача: не определено

Загрузка: не определено

Нажми


Скачать Adguard бесплатно

Создавать темы 14-Мар-2021 01:23 (спустя 7 месяцев 29 дней)

[Цитировать]

Великолепный мультсериал, напоминает те самые всеми любимые луни тюнз детства с потрясающей рисовкой. Команде огромное спасибо за столь прекрасную озвучку, голоса подобраны замечательно. Обязательно с нетерпением буду ждать продолжения.
[Профиль] [ЛС]
Показать сообщения:    
Ответить на тему

Текущее время: 09-Дек 17:39

Часовой пояс: UTC + 4



Вы не можете начинать темы
Вы не можете отвечать на сообщения
Вы не можете редактировать свои сообщения
Вы не можете удалять свои сообщения
Вы не можете голосовать в опросах
Вы не можете прикреплять файлы к сообщениям
Вы можете скачивать файлы
Анализ сайта korsars.pro Яндекс.Метрика