Формирование извращённой силы / Dokyuu Hentai HxEros / Super HxEros [01x01-04 из 12] (2020) BDRip 1080p от Fortuna.TV | Без цензуры | StudioBand

Тема закрыта
 
Автор Сообщение

loe3df ®

Оффлайн

Медали
VIPАктивный раздающий 1


Пол: Не указан

Стаж: 1 год

Наличие запрета:

Сообщений: 94

Отдача: не определено

Загрузка: не определено

Нажми


Скачать Adguard бесплатно

Создавать темы 04-Июл-2020 13:35

[Цитировать]

Формирование извращённой силы / Dokyuu Hentai HxEros / Super HxEros- Год выпуска: 2020
Страна: Япония
Жанр: комедия, сверхъестественное, сёнэн, школа, экшен, этти
Продолжительность: ~ 00:24:00 (серия)
Перевод: Профессиональный (многоголосый, закадровый) | StudioBand [Wakanim]
Режиссёр: Дзимбо Масато
Субтитры: Русские надписи, неотключаемые.-Рейтинг:
-Описание:
В слове «герой» прячется волнительный корень «эро»… Земля под угрозой! Раса цензуросекомых напала на людей и крадёт их эротизм, отнимая желание жить. Противостоять жутким захватчикам могут лишь пять «самых эротичных» старшеклассников! Встречайте героически-эротичную подростковую комедию от Рёмы Китады! © Wakanim-Качество: WEBRip 1080p
Формат: MP4 (MPEG-4 AVC)
Видео: 1920x1080, ~ 5 181 kb/s, 23.976 FPS. 8 bits
Аудио RUS: AAC LC, ~ 128 kb/s, 2 channels, 48.0 kHz-

Скриншоты

MediaInfo

General
Complete name : [FortunaTV] Super HxEros (BDRip) (1080p) (RUS)\[FortunaTV] Super HxEros - 01 (BDRip 1920x1080 x264 RUS).mkv
Format : Matroska
Format version : Version 4
File size : 900 MiB
Duration : 23 min 41 s
Overall bit rate : 5 311 kb/s
Encoded date : UTC 2020-10-26 11:36:20
Writing application : mkvmerge v39.0.0 ('In The Waiting Line') 64-bit
Writing library : libebml v1.3.9 + libmatroska v1.5.2
Video
ID : 1
Format : AVC
Format/Info : Advanced Video Codec
Format profile : High@L4
Format settings : CABAC / 4 Ref Frames
Format settings, CABAC : Yes
Format settings, Reference frames : 4 frames
Codec ID : V_MPEG4/ISO/AVC
Duration : 23 min 41 s
Bit rate : 5 181 kb/s
Width : 1 920 pixels
Height : 1 080 pixels
Display aspect ratio : 16:9
Frame rate mode : Constant
Frame rate : 23.976 (24000/1001) FPS
Color space : YUV
Chroma subsampling : 4:2:0
Bit depth : 8 bits
Scan type : Progressive
Bits/(Pixel*Frame) : 0.104
Stream size : 878 MiB (98%)
Writing library : x264 core 157
Encoding settings : opencl=1 / cabac=1 / ref=4 / deblock=1:-2:-2 / analyse=0x3:0x113 / me=umh / subme=9 / psy=1 / psy_rd=0.70:0.00 / mixed_ref=0 / me_range=32 / chroma_me=1 / trellis=2 / 8x8dct=1 / cqm=0 / deadzone=21,11 / fast_pskip=1 / chroma_qp_offset=-2 / threads=8 / lookahead_threads=1 / sliced_threads=0 / nr=0 / decimate=1 / interlaced=0 / bluray_compat=0 / constrained_intra=0 / bframes=9 / b_pyramid=2 / b_adapt=2 / b_bias=0 / direct=3 / weightb=1 / open_gop=0 / weightp=2 / keyint=250 / keyint_min=23 / scenecut=40 / intra_refresh=0 / rc_lookahead=40 / rc=crf / mbtree=1 / crf=16.0 / qcomp=0.70 / qpmin=10 / qpmax=20 / qpstep=4 / ip_ratio=1.40 / aq=1:1.00
Language : English
Default : Yes
Forced : No
Audio
ID : 2
Format : AAC LC
Format/Info : Advanced Audio Codec Low Complexity
Codec ID : A_AAC-2
Duration : 23 min 39 s
Bit rate : 128 kb/s
Channel(s) : 2 channels
Channel layout : L R
Sampling rate : 48.0 kHz
Frame rate : 46.875 FPS (1024 SPF)
Compression mode : Lossy
Stream size : 21.7 MiB (2%)
Title : Wakanim
Language : Russian
Default : Yes
Forced : No
Релиз от: Fartuna.TV-12.11.2020 обновлено. Добавлена 3-4-я серия - Без цензуры. Приятного просмотра.

Релиз подготовлен Fortuna.TV



Последний раз редактировалось: loe3df (2020-11-12 20:30), всего редактировалось 13 раз(а)
[Профиль] [ЛС]

4udaki

Оффлайн

Медали


Пол: Мужской

Стаж: 6 лет 2 месяца

Наличие запрета:

Сообщений: 8752

Откуда: korsars.pro

Отдача: 2 Mb/s

Загрузка: 20 Mb/s

Нажми


Скачать Adguard бесплатно

Создавать темы 04-Июл-2020 13:56 (спустя 21 минута)

[Цитировать]

Анцез версию ты будешь заливать или ждать deadmauvlad?
[Профиль] [ЛС]

loe3df ®

Оффлайн

Медали
VIPАктивный раздающий 1


Пол: Не указан

Стаж: 1 год

Наличие запрета:

Сообщений: 94

Отдача: не определено

Загрузка: не определено

Нажми


Скачать Adguard бесплатно

Создавать темы 04-Июл-2020 14:16 (спустя 19 минут)

[Цитировать]

36903Анцез версию ты будешь заливать или ждать deadmauvlad?
Если все таки выйдет 9 июля может и залю.
[Профиль] [ЛС]

4udaki

Оффлайн

Медали


Пол: Мужской

Стаж: 6 лет 2 месяца

Наличие запрета:

Сообщений: 8752

Откуда: korsars.pro

Отдача: 2 Mb/s

Загрузка: 20 Mb/s

Нажми


Скачать Adguard бесплатно

Создавать темы 04-Июл-2020 14:17 (спустя 1 минута)

[Цитировать]

36904Если все таки выйдет 9 июля может и залю.
ay
[Профиль] [ЛС]

Rentgen

Оффлайн

Медали


Пол: Не указан

Стаж: 11 месяцев

Наличие запрета:

Сообщений: 80

Отдача: не определено

Загрузка: не определено

Нажми


Скачать Adguard бесплатно

Создавать темы 04-Июл-2020 15:52 (спустя 1 час 34 минуты)

[Цитировать]

Тут главное отключить ваше сознание и подсознание = мозг и вот тогда уже можно вполне себе на 1 раз посмотреть.
Очередной сериал, в котором забыли что существует современное оружие по типу огнестрел.
Ну и конечно же спасение человечества, невозможно без школоты\ояшей.
[Профиль] [ЛС]

deadmauvlad

Оффлайн

Медали
VIP


Пол: Мужской

Стаж: 9 месяцев 28 дней

Наличие запрета:

Сообщений: 35

Откуда: Siberian Republic

Отдача: не определено

Загрузка: не определено

Нажми


Скачать Adguard бесплатно

Создавать темы 11-Июл-2020 08:15 (спустя 6 дней)

[Цитировать]

36903 или ждать deadmauvlad?
В ближайшее время не ждите. У меня серьезные проблемы и мне не до этого al . Как более менее разгребусь сделаю BD версию (если будет без цензуры разумеется)
[Профиль] [ЛС]

4udaki

Оффлайн

Медали


Пол: Мужской

Стаж: 6 лет 2 месяца

Наличие запрета:

Сообщений: 8752

Откуда: korsars.pro

Отдача: 2 Mb/s

Загрузка: 20 Mb/s

Нажми


Скачать Adguard бесплатно

Создавать темы 11-Июл-2020 11:48 (спустя 3 часа)

[Цитировать]

37085
36903 или ждать deadmauvlad?
В ближайшее время не ждите. У меня серьезные проблемы и мне не до этого al . Как более менее разгребусь сделаю BD версию (если будет без цензуры разумеется)
хорошо shok
[Профиль] [ЛС]

Rentgen

Оффлайн

Медали


Пол: Не указан

Стаж: 11 месяцев

Наличие запрета:

Сообщений: 80

Отдача: не определено

Загрузка: не определено

Нажми


Скачать Adguard бесплатно

Создавать темы 11-Июл-2020 18:10 (спустя 6 часов)

[Цитировать]

Выходит что даже в версии от AT-X соски и в некоторых кадрах попку...
Зараза, прикрывают звёздами (цензуры меньше, но основная всё ещё на месте) ak-Только японцы могут так ответственно подходить к опенингам\эндингам в еччи\этти сериалах, не ну правда крайне неплохие получились именно тут.
[Профиль] [ЛС]

Создавать темы 26-Окт-2020 16:05 (спустя 3 месяца 14 дней)

Топик был перенесен из форума Аниме в форум Аниме без цензуры
Причина переноса: Перезалив на uncens.
4udaki
 

Создавать темы 13-Янв-2021 15:43 (спустя 6 месяцев 1 день)

Топик был перенесен из форума Аниме без цензуры в форум Архив
Причина переноса: Поглощено в пользу: http://korsars.pro/viewtopic.php?t=35093
4udaki
 
Показать сообщения:    
Тема закрыта

Текущее время: 25-Янв 05:16

Часовой пояс: UTC + 4



Вы не можете начинать темы
Вы не можете отвечать на сообщения
Вы не можете редактировать свои сообщения
Вы не можете удалять свои сообщения
Вы не можете голосовать в опросах
Вы не можете прикреплять файлы к сообщениям
Вы не можете скачивать файлы
Анализ сайта korsars.pro Яндекс.Метрика