Промар / Promare (2019) BDRip 1080p от FortunaTV | iTunes

Ответить на тему
Статистика раздачи [Обновить пиров]
Размер:  7,87 GB   |    Зарегистрирован:  1 год 5 месяцев   |    .torrent скачан:  14 раз

Полного источника не было: 1 год 1 месяц

Качают:  3  [  0 KB/s  ]   Подробная статистика пиров
 
   
 
 
 
Автор Сообщение

loe3df ®

Оффлайн

Медали
VIPАктивный раздающий 1Активный раздающий 2Активный релизер Аниме (100)
Активный релизер Аниме (50)Орденосец 1 степени


Пол: Не указан

Стаж: 1 год 10 месяцев

Наличие запрета:

Сообщений: 452

Откуда: Die Welt von Hentai

Отдача: не определено

Загрузка: не определено

Нажми


Скачать Adguard бесплатно

Создавать темы 29-Июн-2020 18:28

[Цитировать]

Промар / Promare- Год выпуска: 2019
Страна: Япония
Жанр: экшен, меха, фантастика
Продолжительность: ~ 01:51:07
Перевод: Дублированный | Reanimedia
Режиссёр: Хироюки Имаиси
Субтитры: PrometoSubs (.srt) Полные (текст)-Рейтинг:
-Описание:
Гало и спасатели из пожарного департамента сталкиваются с группой мутантов, которые способны контролировать пламя и теперь угрожают всему человечеству.-Качество: BDRip 1080p
Формат: MKV (H264)
Видео: 1920x1080, ~ 5 306 kb/s, 23.976 FPS. 8 bits
Аудио RUS: AAC LC, ~ 320 kb/s, 6 channels, 48.0 kHz
Аудио JAP: DTS XLL, ~ 4 501 kb/s, 6 channels, 48.0 kHz-

Скриншоты

MediaInfo

General
Unique ID : 273792568306424977783897680968621627429 (0xCDFA87D46E8F48BAF8770CD74BCE1825)
Complete name : [Fortuna.TV] Promare (2019) [BDRip 1920x1080 H264 AAC].mkv
Format : Matroska
Format version : Version 4
File size : 7.87 GiB
Duration : 2 h 0 min
Overall bit rate mode : Variable
Overall bit rate : 9 380 kb/s
Encoded date : UTC 2020-06-21 19:39:35
Writing application : mkvmerge v39.0.0 ('In The Waiting Line') 64-bit
Writing library : libebml v1.3.9 + libmatroska v1.5.2
Attachments : arialbd.ttf / arialbi.ttf / Beethoven.ttf / candarab.ttf / ITC Avant Garde Gothic LT Medium Caps.ttf / ITC Avant Garde Gothic LT Medium.ttf / 10755.otf / 10920.otf / 10950.otf / 13891.ttf / 14364.ttf / 17647.otf / STENCIL.TTF / trebucbd.ttf / trebucbi.ttf
Video
ID : 1
Format : AVC
Format/Info : Advanced Video Codec
Format profile : Main@L4
Format settings : CABAC / 4 Ref Frames
Format settings, CABAC : Yes
Format settings, Reference frames : 4 frames
Codec ID : V_MPEG4/ISO/AVC
Duration : 1 h 51 min
Bit rate : 5 306 kb/s
Width : 1 920 pixels
Height : 1 080 pixels
Display aspect ratio : 16:9
Frame rate mode : Constant
Frame rate : 23.976 (24000/1001) FPS
Color space : YUV
Chroma subsampling : 4:2:0
Bit depth : 8 bits
Scan type : Progressive
Bits/(Pixel*Frame) : 0.107
Stream size : 4.12 GiB (52%)
Writing library : x264 core 157 r2935 545de2f
Encoding settings : cabac=1 / ref=4 / deblock=1:3:3 / analyse=0x1:0x111 / me=tesa / subme=11 / psy=1 / psy_rd=1.00:0.00 / mixed_ref=1 / me_range=16 / chroma_me=1 / trellis=2 / 8x8dct=0 / cqm=0 / deadzone=21,11 / fast_pskip=0 / chroma_qp_offset=-2 / threads=18 / lookahead_threads=3 / sliced_threads=0 / nr=0 / decimate=1 / interlaced=0 / bluray_compat=0 / constrained_intra=0 / bframes=9 / b_pyramid=2 / b_adapt=2 / b_bias=0 / direct=3 / weightb=1 / open_gop=0 / weightp=1 / keyint=240 / keyint_min=24 / scenecut=40 / intra_refresh=0 / rc_lookahead=50 / rc=crf / mbtree=1 / crf=16.0 / qcomp=0.60 / qpmin=0 / qpmax=69 / qpstep=4 / vbv_maxrate=20000 / vbv_bufsize=25000 / crf_max=0.0 / nal_hrd=none / filler=0 / ip_ratio=1.40 / aq=1:0.00
Default : Yes
Forced : No
Color range : Limited
Color primaries : BT.709
Transfer characteristics : BT.709
Matrix coefficients : BT.709
Audio #1
ID : 2
Format : AAC LC
Format/Info : Advanced Audio Codec Low Complexity
Codec ID : A_AAC-2
Duration : 1 h 51 min
Bit rate : 320 kb/s
Channel(s) : 6 channels
Channel layout : C L R Ls Rs LFE
Sampling rate : 48.0 kHz
Frame rate : 46.875 FPS (1024 SPF)
Compression mode : Lossy
Delay relative to video : 20 ms
Stream size : 254 MiB (3%)
Title : Reanimedia
Language : Russian
Default : Yes
Forced : No
Audio #2
ID : 5
Format : DTS XLL
Format/Info : Digital Theater Systems
Commercial name : DTS-HD Master Audio
Codec ID : A_DTS
Duration : 1 h 51 min
Bit rate mode : Variable
Bit rate : 4 501 kb/s
Channel(s) : 6 channels
Channel layout : C L R Ls Rs LFE
Sampling rate : 48.0 kHz
Frame rate : 93.750 FPS (512 SPF)
Bit depth : 24 bits
Compression mode : Lossless
Stream size : 3.49 GiB (44%)
Title : Surround
Language : Japanese
Default : No
Forced : No
Text #1
ID : 3
Format : ASS
Codec ID : S_TEXT/ASS
Codec ID/Info : Advanced Sub Station Alpha
Duration : 2 h 0 min
Bit rate : 126 b/s
Count of elements : 1567
Compression mode : Lossless
Stream size : 112 KiB (0%)
Language : Russian
Default : No
Forced : No
Text #2
ID : 4
Format : ASS
Codec ID : S_TEXT/ASS
Codec ID/Info : Advanced Sub Station Alpha
Duration : 1 h 46 min
Bit rate : 22 b/s
Count of elements : 253
Compression mode : Lossless
Stream size : 17.4 KiB (0%)
Title : Надписи
Language : Russian
Default : Yes
Forced : No
Menu
00:00:00.000 : en:Part 01
00:04:12.502 : en:Part 02
00:08:42.439 : en:Part 03
00:14:24.655 : en:Part 04
00:19:25.122 : en:Part 05
00:21:59.318 : en:Part 06
00:23:43.005 : en:Part 07
00:27:12.464 : en:Part 08
00:29:35.607 : en:Part 09
00:31:30.722 : en:Part 10
00:34:13.385 : en:Part 11
00:40:25.923 : en:Part 12
00:47:27.845 : en:Part 13
00:52:22.139 : en:Part 14
00:53:54.106 : en:Part 15
00:57:05.297 : en:Part 16
01:04:14.267 : en:Part 17
01:10:20.258 : en:Part 18
01:15:08.671 : en:Part 19
01:21:04.818 : en:Part 20
01:26:54.376 : en:Part 21
01:32:06.479 : en:Part 22
01:36:58.021 : en:Part 23
01:40:28.981 : en:Part 24
01:44:00.276 : en:Part 25
01:45:11.347 : en:ED
01:46:29.258 : en:ED 2
Релиз от: Fartuna.TV

Релиз подготовлен Fortuna.TV

[korsars.pro].t29933.torrent 
Торрент: Зарегистрирован [ 2020-06-29 18:28 ] · 4BFB1F2A5E271EA0815B1B2830FADD5B9C36D52C

Скачать .torrent

Размер .torrent файла 20 KB

Статус: проверено
.torrent скачан: 14 раз
Размер: 7,87 GB
Правила
Похожие темы

Вы не зарегистрированы на нашем сайте. Вам доступна для скачивания только часть контента. Чтобы увидеть весь контент сайта, пожалуйста, зарегистрироруйтесь.

Дешевый и быстрый Сидбокс

Ключи и пин-коды

Игры, Кредитные карты, IP-телефония, Интернет провайдеры, Мобильная связь, Спутниковое ТВ

Электронные книги

Бизнес и экономика, Дом, быт, семья, досуг, Санкт-Петербург, Компьютеры и интернет, Наука и образование, Техническая литература, Юридическая литература

Цифровые товары

iTunes & App Store, Базы данных, Дизайн, Доступ к ресурсам, Kарты продления, ключи, Фотографии, Шаблоны для сайтов

Программное обеспечение

Безопасность, Игры, PC, Интернет, Мобильная связь, Программирование, Продвижение сайтов (SEO), Утилиты
У Вас отключен VIP статус, поэтому Вам показывается реклама на сайте. Вы можете поддержать наш ресурс и приобрести VIP статус, тем самым отключив показ рекламы на сайте, а ещё VIP пользователи получают возможность

смотреть аниме онлайн в HD качестве

(не распространяется на раздел Flarrow Films), а так же получить 5 инвайтов, которыми можно поделиться с друзьями или знакомыми.
Дешевый и быстрый Сидбокс

Ключи и пин-коды

Игры, Кредитные карты, IP-телефония, Интернет провайдеры, Мобильная связь, Спутниковое ТВ

Электронные книги

Бизнес и экономика, Дом, быт, семья, досуг, Санкт-Петербург, Компьютеры и интернет, Наука и образование, Техническая литература, Юридическая литература

Цифровые товары

iTunes & App Store, Базы данных, Дизайн, Доступ к ресурсам, Kарты продления, ключи, Фотографии, Шаблоны для сайтов

Программное обеспечение

Безопасность, Игры, PC, Интернет, Мобильная связь, Программирование, Продвижение сайтов (SEO), Утилиты
[Профиль] [ЛС]
Показать сообщения:    
Ответить на тему

Текущее время: 06-Дек 21:20

Часовой пояс: UTC + 4



Вы не можете начинать темы
Вы не можете отвечать на сообщения
Вы не можете редактировать свои сообщения
Вы не можете удалять свои сообщения
Вы не можете голосовать в опросах
Вы не можете прикреплять файлы к сообщениям
Вы можете скачивать файлы
Анализ сайта korsars.pro Яндекс.Метрика