Кипо и эра чудесных зверей / Kipo and the Age of Wonderbeasts [S02] (2020) WEBRip 1080p | Flarrow Films

Ответить на тему
Статистика раздачи [Обновить пиров]
Размер:  4,67 GB   |    Зарегистрирован:  11 месяцев 24 дня   |    .torrent скачан:  9 раз
Раздают:  21  [  0 KB/s  ]   Качают:  5  [  0 KB/s  ]   Подробная статистика пиров
 
   
 
 
Автор Сообщение

4udaki ®

Оффлайн

Медали


Пол: Мужской

Стаж: 6 лет 7 месяцев

Наличие запрета:

Сообщений: 10588

Откуда: korsars.pro

Отдача: 2 Mb/s

Загрузка: 20 Mb/s

Нажми


Скачать Adguard бесплатно

Создавать темы 25-Июн-2020 15:12

[Цитировать]

Информация о фильме
Название: Кипо и эра чудесных зверей
Оригинальное название: Kipo and the Age of Wonderbeasts
Год выхода: 2020
Жанр: мультфильм, мюзикл, фэнтези, боевик, приключения
Режиссеры: Young Ki Yoon, Чейз Конли, Bridget Underwood
В ролях: Карен Фукухара, Ди Брэдли Бейкер, Стерлинг К. Браун, Рея Бутчер, Деон Коул, Лиа ДеЛария, Джэйк Грин, Грэй Гриффин, Джиза, Иэн Хардинг
О фильме:
12-летняя девочка Кипо всю свою жизнь жила под землей, потому что на поверхности наступил апокалипсис неизвестного происхождения. Однажды ей приходится бежать из убежища, и она попадает в удивительный изменившийся мир, в котором флора и фауна мутировала. Там она встречает Волчицу, которая поможет Кипо найти отца и выжить в этом диком мире, и еще несколько попутчиков: четырехглавую и шестиногую свинью Мандо, жизнерадостного парня Бенсона и его напарника — жука-мутанта Дейва, который рандомным образом передвигается по разным стадиям старения.

Страна: США
Продолжительность: ~ 00:24:11 (серия)
Перевод: Профессиональный (многоголосый, закадровый) | Flarrow Films
Роли озвучивали: Рина Чернышова, Денис Кузьмичёв, Ахилл Намазов, Семён Евсиков, Мари Тристан, Екатерина Дмитрова и Ашраф Мансур.
Файл
Формат: MKV
Кодек: MPEG-4 AVC
Качество: WEBRip 1080p
Видео: 1920х1080, ~ 4 110 kb/s, 23.976 FPS, 8 bits
Звук: AC-3, 320 kb/s, 2 channels, 48.0 kHz
Субтитры: отсутствуют-

MediaInfo

1-я серия
General
Unique ID : 1023284708282912502049323343879325147 (0xC513D4D2059B156AA3B38F3927C5DB)
Complete name : C:FlarrowKipo.and.the.Age.of.Wonderbeasts.S02.1080p.Flarrow.FilmsKipo.and.the.Age.of.Wonderbeasts.S02E01.mkv
Format : Matroska
Format version : Version 4
File size : 494 MiB
Duration : 23 min 11 s
Overall bit rate mode : Variable
Overall bit rate : 2 975 kb/s
Encoded date : UTC 2020-06-19 12:45:23
Writing application : mkvmerge v32.0.0 ('Astral Progressions') 64-bit
Writing library : libebml v1.3.7 + libmatroska v1.5.0
Video
ID : 1
Format : AVC
Format/Info : Advanced Video Codec
Format profile : Main@L4
Format settings : CABAC / 3 Ref Frames
Format settings, CABAC : Yes
Format settings, Reference : 3 frames
Codec ID : V_MPEG4/ISO/AVC
Duration : 23 min 10 s
Bit rate mode : Variable
Bit rate : 2 740 kb/s
Maximum bit rate : 4 110 kb/s
Width : 1 920 pixels
Height : 1 080 pixels
Display aspect ratio : 16:9
Frame rate mode : Constant
Frame rate : 23.976 (24000/1001) FPS
Color space : YUV
Chroma subsampling : 4:2:0
Bit depth : 8 bits
Scan type : Progressive
Bits/(Pixel*Frame) : 0.055
Stream size : 440 MiB (89%)
Writing library : x264 core 148 r2717 0d2410d
Encoding settings : cabac=1 / ref=3 / deblock=1:0:0 / analyse=0x1:0x111 / me=umh / subme=10 / psy=1 / psy_rd=1.00:0.00 / mixed_ref=1 / me_range=24 / chroma_me=1 / trellis=2 / 8x8dct=0 / cqm=0 / deadzone=21,11 / fast_pskip=1 / chroma_qp_offset=-2 / threads=8 / lookahead_threads=1 / sliced_threads=0 / nr=0 / decimate=1 / interlaced=0 / bluray_compat=0 / stitchable=1 / constrained_intra=0 / bframes=2 / b_pyramid=0 / b_adapt=2 / b_bias=0 / direct=3 / weightb=1 / open_gop=0 / weightp=2 / keyint=250 / keyint_min=23 / scenecut=0 / intra_refresh=0 / rc_lookahead=48 / rc=2pass / mbtree=1 / bitrate=2740 / ratetol=1.0 / qcomp=0.50 / qpmin=6 / qpmax=51 / qpstep=4 / cplxblur=20.0 / qblur=0.5 / vbv_maxrate=4110 / vbv_bufsize=5480 / nal_hrd=vbr / filler=0 / ip_ratio=1.40 / aq=1:1.00
Default : Yes
Forced : No
Audio
ID : 2
Format : AC-3
Format/Info : Audio Coding 3
Commercial name : Dolby Digital
Codec ID : A_AC3
Duration : 23 min 11 s
Bit rate mode : Constant
Bit rate : 320 kb/s
Channel(s) : 2 channels
Channel layout : L R
Sampling rate : 48.0 kHz
Frame rate : 31.250 FPS (1536 SPF)
Compression mode : Lossy
Stream size : 53.1 MiB (11%)
Service kind : Complete Main
Default : Yes
Forced : No
2-я серия
General
Unique ID : 255934440054207032585170778335070583671 (0xC08B2E20EF2F1D5C6707364B23BAFB77)
Complete name : C:FlarrowKipo.and.the.Age.of.Wonderbeasts.S02.1080p.Flarrow.FilmsKipo.and.the.Age.of.Wonderbeasts.S02E02.mkv
Format : Matroska
Format version : Version 4
File size : 454 MiB
Duration : 23 min 11 s
Overall bit rate mode : Variable
Overall bit rate : 2 736 kb/s
Encoded date : UTC 2020-06-18 08:17:30
Writing application : mkvmerge v32.0.0 ('Astral Progressions') 64-bit
Writing library : libebml v1.3.7 + libmatroska v1.5.0
Video
ID : 1
Format : AVC
Format/Info : Advanced Video Codec
Format profile : Main@L4
Format settings : CABAC / 3 Ref Frames
Format settings, CABAC : Yes
Format settings, Reference : 3 frames
Codec ID : V_MPEG4/ISO/AVC
Duration : 23 min 10 s
Bit rate mode : Variable
Bit rate : 2 490 kb/s
Maximum bit rate : 3 735 kb/s
Width : 1 920 pixels
Height : 1 080 pixels
Display aspect ratio : 16:9
Frame rate mode : Constant
Frame rate : 23.976 (24000/1001) FPS
Color space : YUV
Chroma subsampling : 4:2:0
Bit depth : 8 bits
Scan type : Progressive
Bits/(Pixel*Frame) : 0.050
Stream size : 400 MiB (88%)
Writing library : x264 core 148 r2717 0d2410d
Encoding settings : cabac=1 / ref=3 / deblock=1:0:0 / analyse=0x1:0x111 / me=umh / subme=10 / psy=1 / psy_rd=1.00:0.00 / mixed_ref=1 / me_range=24 / chroma_me=1 / trellis=2 / 8x8dct=0 / cqm=0 / deadzone=21,11 / fast_pskip=1 / chroma_qp_offset=-2 / threads=8 / lookahead_threads=1 / sliced_threads=0 / nr=0 / decimate=1 / interlaced=0 / bluray_compat=0 / stitchable=1 / constrained_intra=0 / bframes=2 / b_pyramid=0 / b_adapt=2 / b_bias=0 / direct=3 / weightb=1 / open_gop=0 / weightp=2 / keyint=250 / keyint_min=23 / scenecut=0 / intra_refresh=0 / rc_lookahead=48 / rc=2pass / mbtree=1 / bitrate=2490 / ratetol=1.0 / qcomp=0.50 / qpmin=6 / qpmax=51 / qpstep=4 / cplxblur=20.0 / qblur=0.5 / vbv_maxrate=3735 / vbv_bufsize=4980 / nal_hrd=vbr / filler=0 / ip_ratio=1.40 / aq=1:1.00
Default : Yes
Forced : No
Audio
ID : 2
Format : AC-3
Format/Info : Audio Coding 3
Commercial name : Dolby Digital
Codec ID : A_AC3
Duration : 23 min 11 s
Bit rate mode : Constant
Bit rate : 320 kb/s
Channel(s) : 2 channels
Channel layout : L R
Sampling rate : 48.0 kHz
Frame rate : 31.250 FPS (1536 SPF)
Compression mode : Lossy
Stream size : 53.1 MiB (12%)
Service kind : Complete Main
Default : Yes
Forced : No
-

Скриншоты

-Примечание: Без интро Flarrow Films-
[korsars.pro].t29836.torrent 
Торрент: Зарегистрирован [ 2020-06-25 15:12 ] · 70FB1CCDB12FC83BC7569661B81392529D4C8549

Скачать .torrent

Размер .torrent файла 13 KB

Статус: проверено
.torrent скачан: 9 раз
Размер: 4,67 GB
Правила
ellolait(25-Июн-20)
Похожие темы

Вы не зарегистрированы на нашем сайте. Вам доступна для скачивания только часть контента. Чтобы увидеть весь контент сайта, пожалуйста, зарегистрироруйтесь.

Дешевый и быстрый Сидбокс

Ключи и пин-коды

Игры, Кредитные карты, IP-телефония, Интернет провайдеры, Мобильная связь, Спутниковое ТВ

Электронные книги

Бизнес и экономика, Дом, быт, семья, досуг, Санкт-Петербург, Компьютеры и интернет, Наука и образование, Техническая литература, Юридическая литература

Цифровые товары

iTunes & App Store, Базы данных, Дизайн, Доступ к ресурсам, Kарты продления, ключи, Фотографии, Шаблоны для сайтов

Программное обеспечение

Безопасность, Игры, PC, Интернет, Мобильная связь, Программирование, Продвижение сайтов (SEO), Утилиты
У Вас отключен VIP статус, поэтому Вам показывается реклама на сайте. Вы можете поддержать наш ресурс и приобрести VIP статус, тем самым отключив показ рекламы на сайте, а ещё VIP пользователи получают возможность

смотреть аниме онлайн в HD качестве

(не распространяется на раздел Flarrow Films), а так же получить 5 инвайтов, которыми можно поделиться с друзьями или знакомыми.
Дешевый и быстрый Сидбокс

Ключи и пин-коды

Игры, Кредитные карты, IP-телефония, Интернет провайдеры, Мобильная связь, Спутниковое ТВ

Электронные книги

Бизнес и экономика, Дом, быт, семья, досуг, Санкт-Петербург, Компьютеры и интернет, Наука и образование, Техническая литература, Юридическая литература

Цифровые товары

iTunes & App Store, Базы данных, Дизайн, Доступ к ресурсам, Kарты продления, ключи, Фотографии, Шаблоны для сайтов

Программное обеспечение

Безопасность, Игры, PC, Интернет, Мобильная связь, Программирование, Продвижение сайтов (SEO), Утилиты


Последний раз редактировалось: 4udaki (2020-07-03 15:43), всего редактировалось 1 раз
[Профиль] [ЛС]

ellolait

Онлайн

Медали
VIP


Пол: Мужской

Стаж: 1 год 2 месяца

Наличие запрета:

Сообщений: 25

Отдача: 100 Mb/s

Загрузка: 100 Mb/s

Нажми


Скачать Adguard бесплатно

Создавать темы 25-Июн-2020 19:14 (спустя 4 часа)

[Цитировать]

Первый сезон был средненьким, зачем пихать гея в откровенно детский мультфильм тоже не понятно, но второй сезон все же ждал, но что-то тут рисунок все в таком же ужасном состоянии, лучше бы брали качеством, а не количеством. У харли квин первый сезон тоже был паршив на картинку, но 2 вышел отличным, а тут авторам все равно на качество.
[Профиль] [ЛС]

4udaki ®

Оффлайн

Медали


Пол: Мужской

Стаж: 6 лет 7 месяцев

Наличие запрета:

Сообщений: 10588

Откуда: korsars.pro

Отдача: 2 Mb/s

Загрузка: 20 Mb/s

Нажми


Скачать Adguard бесплатно

Создавать темы 25-Июн-2020 22:08 (спустя 2 часа 54 минуты)

[Цитировать]

36687зачем пихать гея в откровенно детский мультфильм тоже не понятно
Толерантные bk
[Профиль] [ЛС]
Показать сообщения:    
Ответить на тему

Текущее время: 19-Июн 18:14

Часовой пояс: UTC + 4



Вы не можете начинать темы
Вы не можете отвечать на сообщения
Вы не можете редактировать свои сообщения
Вы не можете удалять свои сообщения
Вы не можете голосовать в опросах
Вы не можете прикреплять файлы к сообщениям
Вы можете скачивать файлы
Анализ сайта korsars.pro Яндекс.Метрика