Халк: Где обитают чудовища / Hulk: Where Monsters Dwell (2016) WEBRip 1080p | Flarrow Films

Ответить на тему
Статистика раздачи [Обновить пиров]
Размер:  1,85 GB   |    Зарегистрирован:  10 месяцев 28 дней   |    .torrent скачан:  7 раз
Раздают:  19  [  0 KB/s  ]   Качают:  5  [  0 KB/s  ]   Подробная статистика пиров
 
   
 
 
Автор Сообщение

flarrowfilms ®

Оффлайн

Медали
VIPДруг трекераСупер Мега Контер Квейк


Пол: Не указан

Стаж: 1 год 1 месяц

Наличие запрета:

Сообщений: 80

Отдача: 5 Mb/s

Загрузка: 5 Mb/s

Нажми


Скачать Adguard бесплатно

Создавать темы 10-Июн-2020 12:16

[Цитировать]

Информация о фильме
Название: Халк: Где обитают чудовища
Оригинальное название: Hulk: Where Monsters Dwell
Год выхода: 2016
Жанр: мультфильм, фантастика, фэнтези, боевик
Режиссер: Митч Шауэр
В ролях: Фред Татаскьор, Лайам О’Брайэн, Джесси Берч, Эдвард Боско, Кьяра Дзанни, Майк Вон, Джон Олсон, Мэттью Уотерсон, Майкл Роблз, Лора Бэйли
О фильме:
В ночь на Хэллоуин по городу разгуливают не только ряженые монстры и злодеи, но и самые настоящие чудовища, представляющие реальную угрозу для людей. Могущественный Доктор Стрендж на пару с громилой Халком пытаются очистить улицы от буйных созданий. Но откуда же взялись все эти твари, и кто их контролирует? Чтобы это выяснить, Стренджу придётся отправится в самые глубины подсознания Халка и проникнуть в измерение снов, где безраздельно правит сверхъестественный демон и давний враг доктора - Кошмар.

Страна: США
Продолжительность: 01:15:15
Перевод: Профессиональный (многоголосый, закадровый) | Flarrow Films
Роли озвучивали: Антон Макаров, Юрий Катарманов, Денис Кузьмичёв, Ахилл Намазов, Серёжа Пасякин, Анастасия Лаглер и Алина Лихачёва.
Файл
Формат: MKV
Кодек: MPEG-4 AVC
Качество: WEBRip 1080p
Видео: 1920х1080, ~ 3 195 kb/s, 23.976 FPS, 8 bits
Звук: AC-3, 320 kb/s, 2 channels, 48.0 kHz
Субтитры: отсутствуют-

MediaInfo

General
Unique ID : 178336250346063229809798478649578684654 (0x862A4FFE1B82AD14D1DCC1A4BC0300EE)
Complete name : C:\Flarrow\Marvels.Hulk.Where.Monsters.Dwell.2016.Flarrow.Films.mkv
Format : Matroska
Format version : Version 4
File size : 1.85 GiB
Duration : 1 h 15 min
Overall bit rate mode : Variable
Overall bit rate : 3 516 kb/s
Encoded date : UTC 2020-06-09 18:27:30
Writing application : mkvmerge v32.0.0 ('Astral Progressions') 64-bit
Writing library : libebml v1.3.7 + libmatroska v1.5.0
Video
ID : 1
Format : AVC
Format/Info : Advanced Video Codec
Format profile : High@L4
Format settings : CABAC / 4 Ref Frames
Format settings, CABAC : Yes
Format settings, Reference : 4 frames
Codec ID : V_MPEG4/ISO/AVC
Duration : 1 h 15 min
Bit rate mode : Variable
Bit rate : 3 195 kb/s
Maximum bit rate : 15.0 Mb/s
Width : 1 920 pixels
Height : 1 080 pixels
Display aspect ratio : 16:9
Frame rate mode : Constant
Frame rate : 23.976 (24000/1001) FPS
Color space : YUV
Chroma subsampling : 4:2:0
Bit depth : 8 bits
Scan type : Progressive
Bits/(Pixel*Frame) : 0.064
Stream size : 1.68 GiB (91%)
Default : Yes
Forced : No
Color range : Limited
Color primaries : BT.709
Transfer characteristics : BT.709
Matrix coefficients : BT.709
Audio
ID : 2
Format : AC-3
Format/Info : Audio Coding 3
Commercial name : Dolby Digital
Codec ID : A_AC3
Duration : 1 h 15 min
Bit rate mode : Constant
Bit rate : 320 kb/s
Channel(s) : 2 channels
Channel layout : L R
Sampling rate : 48.0 kHz
Frame rate : 31.250 FPS (1536 SPF)
Compression mode : Lossy
Stream size : 172 MiB (9%)
Service kind : Complete Main
Default : Yes
Forced : No
-

Скриншоты

-Релиз от: Flarrow Films
Примечание: Без интро Flarrow Films- -
[korsars.pro].t29403.torrent 
Торрент: Зарегистрирован [ 2020-06-10 12:16 ] · 8C5CC1466322F91E425B598CD7F10D9280482191

Скачать .torrent

Размер .torrent файла 19 KB

Статус: проверено
.torrent скачан: 7 раз
Размер: 1,85 GB
Правила
Похожие темы

Вы не зарегистрированы на нашем сайте. Вам доступна для скачивания только часть контента. Чтобы увидеть весь контент сайта, пожалуйста, зарегистрироруйтесь.

У Вас отключен VIP статус, поэтому Вам показывается реклама на сайте. Вы можете поддержать наш ресурс и приобрести VIP статус, тем самым отключив показ рекламы на сайте, а ещё VIP пользователи получают возможность

смотреть аниме онлайн в HD качестве

(не распространяется на раздел Flarrow Films), а так же получить 5 инвайтов, которыми можно поделиться с друзьями или знакомыми.
[Профиль] [ЛС]
Показать сообщения:    
Ответить на тему

Текущее время: 09-Май 07:34

Часовой пояс: UTC + 4



Вы не можете начинать темы
Вы не можете отвечать на сообщения
Вы не можете редактировать свои сообщения
Вы не можете удалять свои сообщения
Вы не можете голосовать в опросах
Вы не можете прикреплять файлы к сообщениям
Вы можете скачивать файлы
Анализ сайта korsars.pro Яндекс.Метрика