Врата / Gate - Jieitai Kanochi nite Kaku Tatakaeri [S01] (2015) BDRip 1080p от WorldAnime | L, L2

Ответить на тему
Статистика раздачи [Обновить пиров]
Размер:  13,54 GB   |    Зарегистрирован:  1 год 4 месяца   |    .torrent скачан:  9 раз

Полного источника не было: 1 год

Качают:  3  [  0 KB/s  ]   Подробная статистика пиров
 
   
 
 
 
Автор Сообщение

4udaki ®

Оффлайн

Медали


Пол: Мужской

Стаж: 6 лет 11 месяцев

Наличие запрета:

Сообщений: 11563

Откуда: korsars.pro

Отдача: 2 Mb/s

Загрузка: 20 Mb/s

Нажми


Скачать Adguard бесплатно

Создавать темы 10-Июн-2020 05:00

[Цитировать]

Информация о фильме
Название: Врата / Врата: Там бьются наши воины / Врата ТВ-1 / Врата: Силы самообороны приняли бой / ВРАТА: искусство современной войны
Оригинальное название: Gate: Jieitai Kanochi nite, Kaku Tatakaeri / Gate: Thus the JSDF Fought There! / GATE
Год выпуска: 2015
Жанр: Фэнтези, комедия, приключения, экшен, военные, зверолюди, гарем
Режиссер: Кёгоку Такахико
Озвучено: Дзюнъити Сувабэ, Нао Тояма, Хисако Канэмото, Риса Танэда, Харука Томацу, Маая Утида, Каито Исикава, Хироки Ясумото, Макото Фурукава, Ёко Хикаса
О фильме: В токийской Гиндзе открылись пространственные Врата, и оттуда хлынули орды захватчиков – словно из дешевых фильмов жанра «меча и магии». Но не тут-то было! Силы самообороны Японии легко отразили натиск и приготовились воевать «малой кровью на чужой земле». Однако даже худой мир лучше доброй ссоры, потому земляне основали в новооткрытом «особом регионе» оперативную базу для изучения местной политики и культуры – в том числе путем ведения агрессивных переговоров!
Тут-то и пригодились таланты 33-летнего Ёдзи Итами, отаку и фаната фэнтези. Не растерявшись во время нападения, Ёдзи попал на глаза высокому начальству, в итоге из резервиста стал старшим лейтенантом и командиром спецотряда, отправленного исследовать новый мир. Ну а потом, как и полагается в такой истории, Итами-сан собрал вокруг себя команду лучших цветов Империи – эльфийку Туку, волшебницу Лелей и малышку Рори – то ли жрицу темного бога, то ли настоящую богиню. Осталось только познакомить соседей с аниме и мангой – и успех гарантирован!

Страна: Япония
Студия: A-1 Pictures
Продолжительность: 12 х ~ 00:24:00
Основа анимэ: Ранобэ
Перевод: Любительский многоголосый (Маргарита Подсухина, Анна Васильева, Антон Лисенков, Иван Солдатенков, Владислав Федяев, Лев Ковалёв, Игорь Федоров, Дмитрий Игоревич, Софья Соколова, Владислав Фомин, Александр Хисматулин) AlFair Studio, Любительский многоголосый (JAM, 9й неизвестный, Cuba77, Oriko, Гамлетка Цезаревна) AniDUB, Любительский многоголосый (GreyMoon, Gomer, NesTea, Aska) SHIZA Project, Любительский двухголосый (Nazel, Freya) Animedia, Любительский двухголосый (Absurd, Eladiel) Onibaku, Любительский двухголосый (Metacarmex, Say) AniLibria, Любительский двухголосый (Octav, Акварелька) AniFilm
Файл
Кодек: AVC
Качество: BDRip 1080p
Видео: 10 bit, ~ 5300 Кбит/с, 1920x1080, 23.976 FPS
Аудио #1: AC3, 2 ch, 192 Кбит/с - Русский, AlFair Studio
Аудио #2: AC3, 2 ch, 192 Кбит/с - Русский, JAM, 9й неизвестный, Cuba77, Oriko, Гамлетка Цезаревна
Аудио #3: AC3, 2 ch, 192 Кбит/с - Русский, GreyMoon, Gomer, NesTea, Aska
Аудио #4: AC3, 2 ch, 192 Кбит/с - Русский, Nazel, Freya
Аудио #5: AC3, 2 ch, 192 Кбит/с - Русский, Absurd, Eladiel
Аудио #6: AC3, 2 ch, 192 Кбит/с - Русский, Metacarmex, Say
Аудио #7: AC3, 2 ch, 192 Кбит/с - Русский, Octav, Акварелька
Аудио #8: FLAC, 2 ch, 1507 Кбит/с - Японский
Субтитры: Русские (Elven_Tankman, Buka63, Kriot)

MediaInfo

G:WorldAnime2015.Gate-Jieitai.Kanochi.nite.Kaku.Tatakaeri.S01.Saint.Oni.WorldAnimeGate-Jieitai.Kanochi.nite.Kaku.Tatakaeri.S01E03.BDRip.1920x1080x264.mkv
Format : Matroska
Format version : Version 2
File size : 1.32 GiB
Duration : 23 min 51 s
Overall bit rate mode : Variable
Overall bit rate : 7 926 kb/s
Encoded date : UTC 2020-05-21 11:46:33
Writing application : mkvmerge v4.2.0 ('No Talking') сборка от Jul 28 2010 18:38:23
Writing library : libebml v1.0.0 + libmatroska v1.0.0
Video
ID : 1
Format : AVC
Format/Info : Advanced Video Codec
Format profile : High 10@L5
Format settings : CABAC / 5 Ref Frames
Format settings, CABAC : Yes
Format settings, ReFrames : 5 frames
Muxing mode : Header stripping
Codec ID : V_MPEG4/ISO/AVC
Duration : 23 min 51 s
Width : 1 920 pixels
Height : 1 080 pixels
Display aspect ratio : 16:9
Frame rate mode : Constant
Frame rate : 23.976 (24000/1001) FPS
Color space : YUV
Chroma subsampling : 4:2:0
Bit depth : 10 bits
Scan type : Progressive
Writing library : x264 core 148 r2638 7599210
Encoding settings : cabac=1 / ref=5 / deblock=1:1:1 / analyse=0x3:0x113 / me=umh / subme=9 / psy=1 / psy_rd=0.70:0.00 / mixed_ref=1 / me_range=32 / chroma_me=1 / trellis=0 / 8x8dct=1 / cqm=0 / deadzone=21,11 / fast_pskip=0 / chroma_qp_offset=-2 / threads=12 / lookahead_threads=1 / sliced_threads=0 / nr=0 / decimate=1 / interlaced=0 / bluray_compat=0 / constrained_intra=0 / bframes=3 / b_pyramid=2 / b_adapt=2 / b_bias=0 / direct=1 / weightb=1 / open_gop=0 / weightp=2 / keyint=240 / keyint_min=23 / scenecut=40 / intra_refresh=0 / rc_lookahead=40 / rc=crf / mbtree=1 / crf=17.0 / qcomp=0.70 / qpmin=0 / qpmax=81 / qpstep=4 / ip_ratio=1.40 / aq=1:1.00
Language : Japanese
Default : No
Forced : No
Statistics Tags Issue : mkvmerge v8.8.0 ('Wind at my back') 64bit 2016-03-05 23:23:00 / mkvmerge v4.2.0 ('No Talking') сборка от Jul 28 2010 18:38:23 2020-05-21 11:46:33
FromStats_BitRate : 5128054
FromStats_Duration : 00:23:42.088000000
FromStats_FrameCount : 34096
FromStats_StreamSize : 911568065
Audio #1
ID : 2
Format : AC-3
Format/Info : Audio Coding 3
Muxing mode : Header stripping
Codec ID : A_AC3
Duration : 23 min 51 s
Bit rate mode : Constant
Bit rate : 192 kb/s
Channel(s) : 2 channels
Channel positions : Front: L R
Sampling rate : 48.0 kHz
Frame rate : 31.250 FPS (1536 SPF)
Bit depth : 16 bits
Compression mode : Lossy
Stream size : 32.8 MiB (2%)
Title : AlFair Studio
Language : Russian
Service kind : Complete Main
Default : Yes
Forced : No
Audio #2
ID : 3
Format : AC-3
Format/Info : Audio Coding 3
Muxing mode : Header stripping
Codec ID : A_AC3
Duration : 23 min 51 s
Bit rate mode : Constant
Bit rate : 192 kb/s
Channel(s) : 2 channels
Channel positions : Front: L R
Sampling rate : 48.0 kHz
Frame rate : 31.250 FPS (1536 SPF)
Bit depth : 16 bits
Compression mode : Lossy
Stream size : 32.8 MiB (2%)
Title : JAM & 9й неизвестный & Cuba77 & Oriko & Гамлетка Цезаревна
Language : Russian
Service kind : Complete Main
Default : No
Forced : No
Audio #3
ID : 4
Format : AC-3
Format/Info : Audio Coding 3
Muxing mode : Header stripping
Codec ID : A_AC3
Duration : 23 min 51 s
Bit rate mode : Constant
Bit rate : 192 kb/s
Channel(s) : 2 channels
Channel positions : Front: L R
Sampling rate : 48.0 kHz
Frame rate : 31.250 FPS (1536 SPF)
Bit depth : 16 bits
Compression mode : Lossy
Stream size : 32.8 MiB (2%)
Title : GreyMoon & Gomer & NesTea & Aska
Language : Russian
Service kind : Complete Main
Default : No
Forced : No
Audio #4
ID : 5
Format : AC-3
Format/Info : Audio Coding 3
Muxing mode : Header stripping
Codec ID : A_AC3
Duration : 23 min 51 s
Bit rate mode : Constant
Bit rate : 192 kb/s
Channel(s) : 2 channels
Channel positions : Front: L R
Sampling rate : 48.0 kHz
Frame rate : 31.250 FPS (1536 SPF)
Bit depth : 16 bits
Compression mode : Lossy
Stream size : 32.8 MiB (2%)
Title : Nazel & Freya
Language : Russian
Service kind : Complete Main
Default : No
Forced : No
Audio #5
ID : 6
Format : AC-3
Format/Info : Audio Coding 3
Muxing mode : Header stripping
Codec ID : A_AC3
Duration : 23 min 51 s
Bit rate mode : Constant
Bit rate : 192 kb/s
Channel(s) : 2 channels
Channel positions : Front: L R
Sampling rate : 48.0 kHz
Frame rate : 31.250 FPS (1536 SPF)
Bit depth : 16 bits
Compression mode : Lossy
Stream size : 32.8 MiB (2%)
Title : Absurd & Eladiel
Language : Russian
Service kind : Complete Main
Default : No
Forced : No
Audio #6
ID : 7
Format : AC-3
Format/Info : Audio Coding 3
Muxing mode : Header stripping
Codec ID : A_AC3
Duration : 23 min 51 s
Bit rate mode : Constant
Bit rate : 192 kb/s
Channel(s) : 2 channels
Channel positions : Front: L R
Sampling rate : 48.0 kHz
Frame rate : 31.250 FPS (1536 SPF)
Bit depth : 16 bits
Compression mode : Lossy
Stream size : 32.8 MiB (2%)
Title : Metacarmex & Say
Language : Russian
Service kind : Complete Main
Default : No
Forced : No
Audio #7
ID : 8
Format : AC-3
Format/Info : Audio Coding 3
Muxing mode : Header stripping
Codec ID : A_AC3
Duration : 23 min 51 s
Bit rate mode : Constant
Bit rate : 192 kb/s
Channel(s) : 2 channels
Channel positions : Front: L R
Sampling rate : 48.0 kHz
Frame rate : 31.250 FPS (1536 SPF)
Bit depth : 16 bits
Compression mode : Lossy
Stream size : 32.8 MiB (2%)
Title : Octav & Акварелька
Language : Russian
Service kind : Complete Main
Default : No
Forced : No
Audio #8
ID : 9
Format : FLAC
Format/Info : Free Lossless Audio Codec
Codec ID : A_FLAC
Duration : 23 min 51 s
Bit rate mode : Variable
Channel(s) : 2 channels
Channel positions : Front: L R
Sampling rate : 48.0 kHz
Bit depth : 24 bits
Writing library : libFLAC 1.3.1 (UTC 2014-11-25)
Language : Japanese
Default : No
Forced : No
Statistics Tags Issue : mkvmerge v8.8.0 ('Wind at my back') 64bit 2016-03-05 23:23:00 / mkvmerge v4.2.0 ('No Talking') сборка от Jul 28 2010 18:38:23 2020-05-21 11:46:33
FromStats_BitRate : 1506691
FromStats_Duration : 00:23:42.090000000
FromStats_FrameCount : 16666
FromStats_StreamSize : 267831411
-

Скриншоты

Релиз от: Moozzi2,
[korsars.pro].t29394.torrent 
Торрент: Зарегистрирован [ 2020-06-10 05:00 ] · DF91B71673C2DB692AA42E20E5E43EF2CB3511A6

Скачать .torrent

Размер .torrent файла 139 KB

Статус: проверено
.torrent скачан: 9 раз
Размер: 13,54 GB
Правила
Похожие темы

Вы не зарегистрированы на нашем сайте. Вам доступна для скачивания только часть контента. Чтобы увидеть весь контент сайта, пожалуйста, зарегистрироруйтесь.

Дешевый и быстрый Сидбокс

Ключи и пин-коды

Игры, Кредитные карты, IP-телефония, Интернет провайдеры, Мобильная связь, Спутниковое ТВ

Электронные книги

Бизнес и экономика, Дом, быт, семья, досуг, Санкт-Петербург, Компьютеры и интернет, Наука и образование, Техническая литература, Юридическая литература

Цифровые товары

iTunes & App Store, Базы данных, Дизайн, Доступ к ресурсам, Kарты продления, ключи, Фотографии, Шаблоны для сайтов

Программное обеспечение

Безопасность, Игры, PC, Интернет, Мобильная связь, Программирование, Продвижение сайтов (SEO), Утилиты
У Вас отключен VIP статус, поэтому Вам показывается реклама на сайте. Вы можете поддержать наш ресурс и приобрести VIP статус, тем самым отключив показ рекламы на сайте, а ещё VIP пользователи получают возможность

смотреть аниме онлайн в HD качестве

(не распространяется на раздел Flarrow Films), а так же получить 5 инвайтов, которыми можно поделиться с друзьями или знакомыми.
Дешевый и быстрый Сидбокс

Ключи и пин-коды

Игры, Кредитные карты, IP-телефония, Интернет провайдеры, Мобильная связь, Спутниковое ТВ

Электронные книги

Бизнес и экономика, Дом, быт, семья, досуг, Санкт-Петербург, Компьютеры и интернет, Наука и образование, Техническая литература, Юридическая литература

Цифровые товары

iTunes & App Store, Базы данных, Дизайн, Доступ к ресурсам, Kарты продления, ключи, Фотографии, Шаблоны для сайтов

Программное обеспечение

Безопасность, Игры, PC, Интернет, Мобильная связь, Программирование, Продвижение сайтов (SEO), Утилиты
[Профиль] [ЛС]
Показать сообщения:    
Ответить на тему

Текущее время: 20-Окт 10:09

Часовой пояс: UTC + 4



Вы не можете начинать темы
Вы не можете отвечать на сообщения
Вы не можете редактировать свои сообщения
Вы не можете удалять свои сообщения
Вы не можете голосовать в опросах
Вы не можете прикреплять файлы к сообщениям
Вы можете скачивать файлы
Анализ сайта korsars.pro Яндекс.Метрика