Бродяга Кэнсин: Великий киотский пожар / Ruroni Kenshin: Kyoto taika-hen (2014) BDRip 1080p | Flarrow Films

Ответить на тему
Статистика раздачи [Обновить пиров]
Размер:  5,36 GB   |    Зарегистрирован:  9 месяцев 1 день   |    .torrent скачан:  3 раза
Раздают:  14  [  0 KB/s  ]   Качают:  11  [  0 KB/s  ]   Подробная статистика пиров
 
   
 
 
Автор Сообщение

flarrowfilms ®

Оффлайн

Медали
VIPДруг трекераСупер Мега Контер Квейк


Пол: Не указан

Стаж: 11 месяцев 13 дней

Наличие запрета:

Сообщений: 71

Отдача: 5 Mb/s

Загрузка: 5 Mb/s

Нажми


Скачать Adguard бесплатно

Создавать темы 06-Июн-2020 17:00

[Цитировать]

Информация о фильме
Название: Бродяга Кэнсин: Великий киотский пожар
Оригинальное название: Ruroni Kenshin: Kyoto taika-hen
Год выхода: 2014
Жанр: боевик, драма
Режиссер: Кэиси Отомо
В ролях: Такеру Сато, Ю Аои, Эми Такеи, Йосукэ Эгути, Тацуя Фудзивара, Мин Танака, Юсукэ Исейа, Рюноскэ Камики, Лиза Ульель, Мунэтака Аоки, Даи Ватанабе
О фильме:
На этот раз Кэнсин вступает в противостояние с самим Макото Шишио — злодеем, вознамерившимся свергнуть правительство Мэйдзи и подчинить себе всю Японию. Судьба страны висит на волоске, и скиталец-самурай Химура вновь берет в руки меч, к которому он поклялся никогда не прикасаться.

Страна: Япония
Продолжительность: 01:25:06
Перевод: Профессиональный (многоголосый, закадровый) | Flarrow Films
Роли озвучивали: Андрей Стакионис, Денис Кузьмичёв, Ахилл Намазов, Алексей Ядренников, Алексей Щегорский, Рина Чернышова, Ксю Березовая, Евгений Леонов, Анастасия Скачкова и Максим Жидков.
Файл
Формат: MKV
Кодек: MPEG-4 AVC
Качество: BDRip 1080p
Видео: 1920х800, ~ 5 209 kb/s, 23.976 FPS, 8 bits
Звук: AC-3, 320 kb/s, 2 channels, 48.0 kHz-

MediaInfo

General
Unique ID : 93167705520608021735400257305330055057 (0x461772883AC8A43F228F5D74C22FF791)
Complete name : C:\Flarrow\Ruroni Kenshin Kyoto taik-hen.Flarrow.Films.mkv
Format : Matroska
Format version : Version 4
File size : 5.36 GiB
Duration : 2 h 18 min
Overall bit rate : 5 530 kb/s
Encoded date : UTC 2020-06-03 10:33:02
Writing application : mkvmerge v32.0.0 ('Astral Progressions') 64-bit
Writing library : libebml v1.3.7 + libmatroska v1.5.0
Video
ID : 1
Format : AVC
Format/Info : Advanced Video Codec
Format profile : High@L4.1
Format settings : CABAC / 4 Ref Frames
Format settings, CABAC : Yes
Format settings, Reference : 4 frames
Codec ID : V_MPEG4/ISO/AVC
Duration : 2 h 18 min
Bit rate : 5 209 kb/s
Width : 1 920 pixels
Height : 800 pixels
Display aspect ratio : 2.40:1
Frame rate mode : Constant
Frame rate : 23.976 FPS
Color space : YUV
Chroma subsampling : 4:2:0
Bit depth : 8 bits
Scan type : Progressive
Bits/(Pixel*Frame) : 0.141
Stream size : 5.05 GiB (94%)
Writing library : x264 core 146 r2538 121396c
Encoding settings : cabac=1 / ref=4 / deblock=1:1:1 / analyse=0x3:0x113 / me=hex / subme=6 / psy=1 / psy_rd=0.40:0.00 / mixed_ref=1 / me_range=16 / chroma_me=1 / trellis=1 / 8x8dct=1 / cqm=0 / deadzone=21,11 / fast_pskip=1 / chroma_qp_offset=-2 / threads=6 / lookahead_threads=1 / sliced_threads=0 / nr=0 / decimate=1 / interlaced=0 / bluray_compat=0 / constrained_intra=0 / bframes=5 / b_pyramid=2 / b_adapt=1 / b_bias=0 / direct=1 / weightb=1 / open_gop=0 / weightp=1 / keyint=250 / keyint_min=23 / scenecut=40 / intra_refresh=0 / rc_lookahead=30 / rc=crf / mbtree=1 / crf=19.0 / qcomp=0.60 / qpmin=0 / qpmax=69 / qpstep=4 / ip_ratio=1.40 / aq=1:0.60
Language : English
Default : Yes
Forced : No
Audio
ID : 2
Format : AC-3
Format/Info : Audio Coding 3
Commercial name : Dolby Digital
Codec ID : A_AC3
Duration : 2 h 18 min
Bit rate mode : Constant
Bit rate : 320 kb/s
Channel(s) : 2 channels
Channel layout : L R
Sampling rate : 48.0 kHz
Frame rate : 31.250 FPS (1536 SPF)
Compression mode : Lossy
Stream size : 317 MiB (6%)
Service kind : Complete Main
Default : Yes
Forced : No
-

Скриншоты

-Релиз от: Flarrow Films (сделан по заказу одного из пользователей группы Flarrow Films в ВК).-

[korsars.pro].t29316.torrent 
Торрент: Зарегистрирован [ 2020-06-06 17:00 ] · 95952C9B81E81D2166F5F9F89220924BCBD94612

Скачать .torrent

Размер .torrent файла 14 KB

Статус: проверено
.torrent скачан: 3 раз
Размер: 5,36 GB
Правила
Похожие темы

Вы не зарегистрированы на нашем сайте. Вам доступна для скачивания только часть контента. Чтобы увидеть весь контент сайта, пожалуйста, зарегистрироруйтесь.

У Вас отключен VIP статус, поэтому Вам показывается реклама на сайте. Вы можете поддержать наш ресурс и приобрести VIP статус, тем самым отключив показ рекламы на сайте, а ещё VIP пользователи получают возможность

смотреть фильмы, сериалы и аниме онлайн в HD качестве

(не распространяется на раздел Flarrow Films), а так же получить 5 инвайтов, которыми можно поделиться с друзьями или знакомыми.
[Профиль] [ЛС]
Показать сообщения:    
Ответить на тему

Текущее время: 07-Мар 18:42

Часовой пояс: UTC + 4



Вы не можете начинать темы
Вы не можете отвечать на сообщения
Вы не можете редактировать свои сообщения
Вы не можете удалять свои сообщения
Вы не можете голосовать в опросах
Вы не можете прикреплять файлы к сообщениям
Вы можете скачивать файлы
Анализ сайта korsars.pro Яндекс.Метрика