Коллекция Дзюндзи Ито / Itou Junji: Collection [S01] (2018) WEBRip от Deadmauvlad | KANSAI

Ответить на тему
Статистика раздачи [Обновить пиров]
Размер:  3,91 GB   |    Зарегистрирован:  1 год 4 месяца   |    .torrent скачан:  1 раз
Раздают:  6  [  0 KB/s  ]   Качают:  7  [  0 KB/s  ]   Подробная статистика пиров
 
   
 
 
Автор Сообщение

4udaki ®

Оффлайн

Медали


Пол: Мужской

Стаж: 6 лет 11 месяцев

Наличие запрета:

Сообщений: 11587

Откуда: korsars.pro

Отдача: 2 Mb/s

Загрузка: 20 Mb/s

Нажми


Скачать Adguard бесплатно

Создавать темы 02-Июн-2020 05:00

[Цитировать]

Информация о фильме
Название: Коллекция Дзюндзи Ито
Оригинальное название: Itou Junji: Collection
Год выхода: 2018
Жанр: ужасы, детектив, драма, мистика, психология, сверхъестественное, трагедия
Снято по манге: Ma no Kakera
Режиссер: Синобу Тагасира
В ролях: Риэ Суэгара, Юдзи Мицуя, Мами Кояма, Хиро Симоно, Хикару Мидорикава
О фильме: Готовы как следует испугаться? По-другому и быть не может, потому что вас ждёт порция великолепных ужастиков от мастера своего дела, мангаки Дзюндзи Ито. Его творениям уже более двадцати лет, но они до сих пор не теряют свою актуальность, ведь все, кто знакомится с его творчеством, не могут не отметить, что оно произвело на них большое впечатление. А теперь, спустя столько лет, его персонажи наконец-то оживут в экранизации нескольких из его рассказов.
Например, Девочка-слизень. Однажды, Юуко обнаружила, что её язык распухает, и говорить ей становится сложнее, чем раньше. Со временем язык увеличился настолько, что это начало мешать её дикции, и люди вокруг перестали понимать, что она говорит. Вскоре стало понятно, что язык вовсе не опух, ведь вместо него во рту у Юуко поселился огромный и мерзкий слизень. Или же история про фотомодель, настолько жуткую, что каждый, кто увидит её, потом не может оправиться от постоянных ночных кошмаров. Эти и другие истории ждут вас в этом аниме, и они точно не оставят вас равнодушными.

Страна: Япония
Студия: Studio DEEN, Marvy Jack
Продолжительность: 12 х ~ 00:24:00
Перевод: Профессиональный многоголосый (Студия KANSAI) - Без рекламы !
Файл
Качество: WEBRip
Видео: 720x400 (16:9), 23.976 fps, 1 573 kb/s (0.228 bit/pixel)
Аудио №1: AC-3, 48,0 КГц, 2 ch, 192 Кбит/сек, CBR | | KANSAI
Аудио №2: AC-3, 48,0 КГц, 2 ch, 192 /сек, CBR | | Japan (Оригинал)
Хардсаб: Русский (Надписи)
Субтитры: Русские (Полный перевод)

Список Серий

01. Souichi`s Convenient Curses / Hellish Doll Funeral
02. Fashion Model / Long Dreams
03. The Crossroads Pretty Boy: The Lovesick Dead / Slug Girl
04. Shiver / House of Puppets
05. The Ongoing Tale of Oshikiri / Cloth Teacher
06. Window Next Door / Gentle Goodbye
07. Used Record / Town of No Roads
08. Honored Ancestors / The Circus Comes to Town
09. Painter / Blood-Bubble Bushes
10. Greased / Bridge
11. Supernatural Transfer Student / Scarecrow
12. Smashed / Rumors

MediaInfo

General
Complete name : [Deadmau- RAWS] Ito.Junji.Collection.S01.2018.RUS.JAP.WEBRip.Deadmauvlad.Ep.01.avi
Format : AVI
Format/Info : Audio Video Interleave
File size : 334 MiB
Duration : 23 min 40 s
Overall bit rate : 1 971 kb/s
Movie name : [Deadmau- RAWS] Коллекция.Дзюндзи.Ито.S01.2018.RUS.JAP.WEBRip.Deadmauvlad.Серия.01
Director : Encoder by Deadmauvlad
Genre : Ужасы
Writing application : VirtualDubMod 1.5.10.3 | www.virtualdub-fr.org || (build 2550/release)
Original source form/Name : Аниме
Copyright : Encoder by Deadmauvlad
Comment : Encoder by Deadmauvlad
Video
ID : 0
Format : MPEG-4 Visual
Format profile : Advanced Simple@L5
Format settings : BVOP1 / Custom Matrix
Format settings, BVOP : 1
Format settings, QPel : No
Format settings, GMC : No warppoints
Format settings, Matrix : Custom
Codec ID : XVID
Codec ID/Hint : XviD
Duration : 23 min 40 s
Bit rate : 1 573 kb/s
Width : 720 pixels
Height : 400 pixels
Display aspect ratio : 16:9
Frame rate : 23.976 (24000/1001) FPS
Color space : YUV
Chroma subsampling : 4:2:0
Bit depth : 8 bits
Scan type : Progressive
Compression mode : Lossy
Bits/(Pixel*Frame) : 0.228
Stream size : 266 MiB (80%)
Writing library : XviD 73
Audio #1
ID : 1
Format : AC-3
Format/Info : Audio Coding 3
Commercial name : Dolby Digital
Codec ID : 2000
Duration : 23 min 40 s
Bit rate mode : Constant
Bit rate : 192 kb/s
Channel(s) : 2 channels
Channel layout : L R
Sampling rate : 48.0 kHz
Frame rate : 31.250 FPS (1536 SPF)
Bit depth : 16 bits
Compression mode : Lossy
Stream size : 32.5 MiB (10%)
Alignment : Split accross interleaves
Interleave, duration : 42 ms (1.00 video frame)
Interleave, preload duration : 500 ms
Audio #2
ID : 2
Format : AC-3
Format/Info : Audio Coding 3
Commercial name : Dolby Digital
Codec ID : 2000
Duration : 23 min 40 s
Bit rate mode : Constant
Bit rate : 192 kb/s
Channel(s) : 2 channels
Channel layout : L R
Sampling rate : 48.0 kHz
Frame rate : 31.250 FPS (1536 SPF)
Bit depth : 16 bits
Compression mode : Lossy
Stream size : 32.5 MiB (10%)
Alignment : Split accross interleaves
Interleave, duration : 42 ms (1.00 video frame)
Interleave, preload duration : 500 ms

Скриншоты

Релиз / Автор рипа: Deadmauvlad ^_^
[korsars.pro].t29203.torrent 
Торрент: Зарегистрирован [ 2020-06-02 05:00 ] · 536183C33E25AE34EB7EFDA752E24F84DFA4B0C8

Скачать .torrent

Размер .torrent файла 24 KB

Статус: проверено
.torrent скачан: 1 раз
Размер: 3,91 GB
Правила
Похожие темы

Вы не зарегистрированы на нашем сайте. Вам доступна для скачивания только часть контента. Чтобы увидеть весь контент сайта, пожалуйста, зарегистрироруйтесь.

Дешевый и быстрый Сидбокс

Ключи и пин-коды

Игры, Кредитные карты, IP-телефония, Интернет провайдеры, Мобильная связь, Спутниковое ТВ

Электронные книги

Бизнес и экономика, Дом, быт, семья, досуг, Санкт-Петербург, Компьютеры и интернет, Наука и образование, Техническая литература, Юридическая литература

Цифровые товары

iTunes & App Store, Базы данных, Дизайн, Доступ к ресурсам, Kарты продления, ключи, Фотографии, Шаблоны для сайтов

Программное обеспечение

Безопасность, Игры, PC, Интернет, Мобильная связь, Программирование, Продвижение сайтов (SEO), Утилиты
У Вас отключен VIP статус, поэтому Вам показывается реклама на сайте. Вы можете поддержать наш ресурс и приобрести VIP статус, тем самым отключив показ рекламы на сайте, а ещё VIP пользователи получают возможность

смотреть аниме онлайн в HD качестве

(не распространяется на раздел Flarrow Films), а так же получить 5 инвайтов, которыми можно поделиться с друзьями или знакомыми.
Дешевый и быстрый Сидбокс

Ключи и пин-коды

Игры, Кредитные карты, IP-телефония, Интернет провайдеры, Мобильная связь, Спутниковое ТВ

Электронные книги

Бизнес и экономика, Дом, быт, семья, досуг, Санкт-Петербург, Компьютеры и интернет, Наука и образование, Техническая литература, Юридическая литература

Цифровые товары

iTunes & App Store, Базы данных, Дизайн, Доступ к ресурсам, Kарты продления, ключи, Фотографии, Шаблоны для сайтов

Программное обеспечение

Безопасность, Игры, PC, Интернет, Мобильная связь, Программирование, Продвижение сайтов (SEO), Утилиты
[Профиль] [ЛС]
Показать сообщения:    
Ответить на тему

Текущее время: 28-Окт 02:14

Часовой пояс: UTC + 4



Вы не можете начинать темы
Вы не можете отвечать на сообщения
Вы не можете редактировать свои сообщения
Вы не можете удалять свои сообщения
Вы не можете голосовать в опросах
Вы не можете прикреплять файлы к сообщениям
Вы можете скачивать файлы
Анализ сайта korsars.pro Яндекс.Метрика