Human Lost: Исповедь неполноценного человека / Human Lost: Ningen Shikkaku (2019) BDRip 1080p от Fortuna.TV | Reanimedia

Ответить на тему
Статистика раздачи [Обновить пиров]
Размер:  6,89 GB   |    Зарегистрирован:  1 год 4 месяца   |    .torrent скачан:  26 раз
Раздают:  20  [  0 KB/s  ]   Качают:  8  [  0 KB/s  ]   Подробная статистика пиров
 
   
 
 
Автор Сообщение

loe3df ®

Оффлайн

Медали
VIPАктивный раздающий 1Активный раздающий 2Активный релизер Аниме (100)
Активный релизер Аниме (50)Орденосец 1 степени


Пол: Не указан

Стаж: 1 год 9 месяцев

Наличие запрета:

Сообщений: 360

Откуда: Die Welt von Hentai

Отдача: не определено

Загрузка: не определено

Нажми


Скачать Adguard бесплатно

Создавать темы 21-Май-2020 14:25

[Цитировать]

Human Lost: Исповедь неполноценного человека / Human Lost: Ningen Shikkaku- Год выпуска: 2019
Страна: Япония
Жанр: драма, фантастика
Продолжительность: ~ 01:49:21
Перевод: Дублированный | Reanimedia
Режиссёр: Фуминори Кидзаки
Субтитры: Reanimedia (.srt) - полные (текст)-Рейтинг:
-Описание:
Токио, 2036 год: невероятный прорыв в медицине обеспечил человеку победу над самой смертью... Благодаря внутренним наномашинам и системе «S.H.E.L.L.», сеть которой всё контролирует, люди не страдают никакими недугами, травмы не требуют лечения, а продолжительность жизни составляет 120 лет.
Но у всего есть обратная сторона. Заполучив желанное, японская нация деформируется: наступает экономическое неравенство, этический декаданс, загрязнение окружающей среды; появляются «потерянные люди» — аутсайдеры, которые сами отключаются от сети «S.H.E.L.L.», становясь «дефектными».
Атмосферное загрязнение заполоняет «Трассу-16» снаружи, за пределами кольцевой трассы. Праздно живущий Ёдзо Оба связывается с Масао Хорики — таинственным человеком, связанным с бандами дрэг-рэйсинга где-то с петли 7-й трассы — места обитания привилегированных — дабы навлечь на себя беду, не иначе. Нарвавшись на «дефектного», Ёдзо спасает Ёсико Хиираги — девушку со странными способностями, принадлежащую к анти-потерянному агентству «H.I.L.A.M.». Тогда-то он и поймёт, что и сам не так прост...
Деградация и смерть. Надежда и жизнь. В непомерном ужасе человек рвёт себя на куски, воет, мечется, со слезами на глазах становится демоном. Потерянный человек... или человек, способный обрести себя?-Качество: BDRip 1080p
Формат: MKV (MPEG-4 AVC)
Видео: 1920x804, ~ 5 549 kb/s, 23.976 FPS. 8 bits
Аудио RUS: AAC LC, ~ 490 kb/s, 6 channels, 48.0 kHz
Аудио JAP: FLAC, ~ 2 925 kb/s, 6 channels, 48.0 kHz-

Скриншоты

MediaInfo

General
Unique ID : 130231410585560013612023018980640480833 (0x61F9A847157062760ABEA87B655ADE41)
Complete name : [Fortuna.TV] Human Lost - Ningen Shikkaku [BD 1980x1080p x264 AAC).mkv
Format : Matroska
Format version : Version 4
File size : 6.89 GiB
Duration : 1 h 49 min
Overall bit rate mode : Variable
Overall bit rate : 8 966 kb/s
Encoded date : UTC 2020-06-17 17:08:11
Writing application : mkvmerge v39.0.0 ('In The Waiting Line') 64-bit
Writing library : libebml v1.3.9 + libmatroska v1.5.2
Video
ID : 1
Format : AVC
Format/Info : Advanced Video Codec
Format profile : Main@L4.1
Format settings : CABAC / 4 Ref Frames
Format settings, CABAC : Yes
Format settings, Reference frames : 4 frames
Codec ID : V_MPEG4/ISO/AVC
Duration : 1 h 49 min
Bit rate : 5 549 kb/s
Width : 1 920 pixels
Height : 804 pixels
Display aspect ratio : 2.40:1
Frame rate mode : Constant
Frame rate : 23.976 (24000/1001) FPS
Color space : YUV
Chroma subsampling : 4:2:0
Bit depth : 8 bits
Scan type : Progressive
Bits/(Pixel*Frame) : 0.150
Stream size : 4.26 GiB (62%)
Writing library : x264 core 160 r3007 [Ohys-Raws]
Encoding settings : cabac=1 / ref=4 / deblock=1:0:0 / analyse=0x1:0x111 / me=umh / subme=9 / psy=1 / psy_rd=1.00:0.00 / mixed_ref=1 / me_range=32 / chroma_me=1 / trellis=2 / 8x8dct=0 / cqm=0 / deadzone=21,11 / fast_pskip=1 / chroma_qp_offset=-2 / threads=24 / lookahead_threads=2 / sliced_threads=0 / nr=0 / decimate=1 / interlaced=0 / bluray_compat=0 / constrained_intra=0 / bframes=3 / b_pyramid=2 / b_adapt=2 / b_bias=0 / direct=2 / weightb=1 / open_gop=0 / weightp=2 / keyint=240 / keyint_min=23 / scenecut=40 / intra_refresh=0 / rc_lookahead=50 / rc=crf / mbtree=1 / crf=18.0 / qcomp=0.60 / qpmin=10 / qpmax=51 / qpstep=4 / ip_ratio=1.40 / aq=1:1.00
Default : Yes
Forced : No
Color range : Limited
Color primaries : BT.709
Transfer characteristics : BT.709
Matrix coefficients : BT.709
Audio #1
ID : 2
Format : AAC LC
Format/Info : Advanced Audio Codec Low Complexity
Codec ID : A_AAC-2
Duration : 1 h 49 min
Bit rate : 490 kb/s
Channel(s) : 6 channels
Channel layout : C L R Ls Rs LFE
Sampling rate : 48.0 kHz
Frame rate : 46.875 FPS (1024 SPF)
Compression mode : Lossy
Stream size : 385 MiB (5%)
Title : Reanimedia
Language : Russian
Default : Yes
Forced : No
Audio #2
ID : 3
Format : FLAC
Format/Info : Free Lossless Audio Codec
Codec ID : A_FLAC
Duration : 1 h 49 min
Bit rate mode : Variable
Bit rate : 2 925 kb/s
Channel(s) : 6 channels
Channel layout : L R C LFE Ls Rs
Sampling rate : 48.0 kHz
Frame rate : 10.417 FPS (4608 SPF)
Bit depth : 24 bits
Compression mode : Lossless
Stream size : 2.25 GiB (33%)
Writing library : ShanaEncoder
Language : Japanese
Default : No
Forced : No
Text
ID : 4
Format : UTF-8
Codec ID : S_TEXT/UTF8
Codec ID/Info : UTF-8 Plain Text
Duration : 1 h 45 min
Bit rate : 79 b/s
Count of elements : 1071
Stream size : 61.1 KiB (0%)
Title : Reanimedia
Language : Russian
Default : No
Forced : No
Menu
00:00:00.000 : en:Avant
00:07:39.459 : en:OP
00:13:41.487 : en:Part A
00:25:28.485 : en:Part B
00:33:52.864 : en:Part C
00:41:32.657 : en:Part D
01:00:07.437 : en:Part E
01:10:32.061 : en:Part F
01:21:56.620 : en:Part G
01:30:02.814 : en:Part H
01:40:48.334 : en:Part I
01:45:03.297 : en:END
Релиз от: Fartuna.TV-17.06.2020 обновлено. WEB-DL (1080p) заменён на BDRip (1080p).

Релиз подготовлен Fortuna.TV

[korsars.pro].t28912.torrent 
Торрент: Зарегистрирован [ 2020-06-17 21:26 ] · DD1D93F2DCFB97A6E0825D84164B204F2A8E5797

Скачать .torrent

Размер .torrent файла 18 KB

Статус: проверено
.torrent скачан: 26 раз
Размер: 6,89 GB
Правила
4udaki(25-Май-20), Skorp10n(25-Май-20), deadmauvlad(27-Май-20)
Похожие темы

Вы не зарегистрированы на нашем сайте. Вам доступна для скачивания только часть контента. Чтобы увидеть весь контент сайта, пожалуйста, зарегистрироруйтесь.

Дешевый и быстрый Сидбокс

Ключи и пин-коды

Игры, Кредитные карты, IP-телефония, Интернет провайдеры, Мобильная связь, Спутниковое ТВ

Электронные книги

Бизнес и экономика, Дом, быт, семья, досуг, Санкт-Петербург, Компьютеры и интернет, Наука и образование, Техническая литература, Юридическая литература

Цифровые товары

iTunes & App Store, Базы данных, Дизайн, Доступ к ресурсам, Kарты продления, ключи, Фотографии, Шаблоны для сайтов

Программное обеспечение

Безопасность, Игры, PC, Интернет, Мобильная связь, Программирование, Продвижение сайтов (SEO), Утилиты
У Вас отключен VIP статус, поэтому Вам показывается реклама на сайте. Вы можете поддержать наш ресурс и приобрести VIP статус, тем самым отключив показ рекламы на сайте, а ещё VIP пользователи получают возможность

смотреть аниме онлайн в HD качестве

(не распространяется на раздел Flarrow Films), а так же получить 5 инвайтов, которыми можно поделиться с друзьями или знакомыми.
Дешевый и быстрый Сидбокс

Ключи и пин-коды

Игры, Кредитные карты, IP-телефония, Интернет провайдеры, Мобильная связь, Спутниковое ТВ

Электронные книги

Бизнес и экономика, Дом, быт, семья, досуг, Санкт-Петербург, Компьютеры и интернет, Наука и образование, Техническая литература, Юридическая литература

Цифровые товары

iTunes & App Store, Базы данных, Дизайн, Доступ к ресурсам, Kарты продления, ключи, Фотографии, Шаблоны для сайтов

Программное обеспечение

Безопасность, Игры, PC, Интернет, Мобильная связь, Программирование, Продвижение сайтов (SEO), Утилиты
[Профиль] [ЛС]
Показать сообщения:    
Ответить на тему

Текущее время: 28-Окт 02:19

Часовой пояс: UTC + 4



Вы не можете начинать темы
Вы не можете отвечать на сообщения
Вы не можете редактировать свои сообщения
Вы не можете удалять свои сообщения
Вы не можете голосовать в опросах
Вы не можете прикреплять файлы к сообщениям
Вы можете скачивать файлы
Анализ сайта korsars.pro Яндекс.Метрика