Школьная жизнь / Gakkou Gurashi! [S01] (2015) BDRip от Deadmauvlad | Shiza Project

Ответить на тему
Статистика раздачи [Обновить пиров]
Размер:  3,92 GB   |    Зарегистрирован:  1 год 5 месяцев   |    .torrent скачан:  11 раз
Раздают:  2  [  0 KB/s  ]   Качают:  3  [  0 KB/s  ]   Подробная статистика пиров
 
   
 
 
 
Автор Сообщение

deadmauvlad ®

Оффлайн

Медали
VIP


Пол: Мужской

Стаж: 1 год 6 месяцев

Наличие запрета:

Сообщений: 65

Откуда: Siberian Republic

Отдача: не определено

Загрузка: не определено

Нажми


Скачать Adguard бесплатно

Создавать темы 20-Май-2020 18:53

[Цитировать]


Русское название: Школьная жизнь!
Оригинальное название: Gakkou Gurashi!
Жанр: мистика, драма, мистика, психология, сэйнэн, школа, фантастика, ужасы
Выпуск: с 9 июля 2015 по 24 сентября 2015
Режиссер: Андо Масаоми
Автор оригинала: Кайхо Норимицу
Краткое содержание: Такея Юки очень любит свою школу. Для неё это замечательное место, где она проводит свой досуг и деятельность вместе с клубом, в котором она состоит - Клубом Школьной Жизни, цель которого помогать деятельности других клубов. Вместе с президентом клуба Ри-чан, ещё одной участницей клуба Куруми-чан и их куратором Мегуми по прозвищу "Сестренка Мег", она живёт полноценной жизнью обычной школьницы. Вот только есть существенная разница между тем, что она себе представляет, и реальной картиной событий, которые происходят не только в школе, но и вокруг...

Озвучание: Любительский Многоголосый GreyMoon & NASTR & Oni & Aska [Shiza Project]
Производство: Япония
Студия: Lerche
Продолжительность: 12 серий x ~00:24:00
Файл
Качество: BDRip | Исходник: BDRemux 1080p thx antiBILLotic |
Формат: AVI
Кодек: XviD
Аудио кодек: AC3
Видео: 720x400 (16:9), 23.976 fps, 1 531 kb/s (0.222 bit/pixel)
Аудио #1: AC-3, 48.0 kHz, 2 ch, 192 kb/s, CBR | | SHIZA
Аудио #2: AC-3, 48.0 kHz, 2 ch, 192 kb/s, CBR | | Japan (Оригинал)
Русские Субтитры: Есть в раздаче

MediaInfo:

Общее
Полное имя : [Deadmau- RAWS] Gakkou.Gurashi.S01.RUS.JAP.BDRip.Deadmauvlad.Ep.01.avi
Формат : AVI
Формат/Информация : Audio Video Interleave
Размер файла : 335 Мбайт
Продолжительность : 24 м. 15 с.
Общий поток : 1929 Кбит/сек
Название фильма : [Deadmau- RAWS] Школьная.жизнь.S01.RUS.JAP.BDRip.Deadmauvlad.Ep.01
Режиссёр : Encoder by Deadmauvlad
Жанр : ужасы, мистика, школа
Программа кодирования : VirtualDubMod 1.5.10.3 | www.virtualdub-fr.org || (build 2550/release)
Формат оригинала/Имя : Аниме
Авторское право : Encoder by Deadmauvlad
Примечание : Encoder by Deadmauvlad
Видео
Идентификатор : 0
Формат : MPEG-4 Visual
Профиль формата : Advanced Simple@L5
Настройки формата : BVOP1 / Custom Matrix
Параметр BVOP формата : 1
Параметр QPel формата : Нет
Параметр GMC формата : Без точки перехода
Параметр матрицы формата : Выборочная
Идентификатор кодека : XVID
Идентификатор кодека/Подсказка : XviD
Продолжительность : 24 м. 15 с.
Битрейт : 1531 Кбит/сек
Ширина : 720 пикселей
Высота : 400 пикселей
Соотношение сторон : 16:9
Частота кадров : 23,976 (24000/1001) кадра/сек
Цветовое пространство : YUV
Субдискретизация насыщенности : 4:2:0
Битовая глубина : 8 бит
Тип развёртки : Прогрессивная
Метод сжатия : С потерями
Бит/(Пиксели*Кадры) : 0.222
Размер потока : 266 Мбайт (79%)
Библиотека кодирования : XviD 73
Аудио #1
Идентификатор : 1
Формат : AC-3
Формат/Информация : Audio Coding 3
Коммерческое название : Dolby Digital
Идентификатор кодека : 2000
Продолжительность : 24 м. 14 с.
Вид битрейта : Постоянный
Битрейт : 192 Кбит/сек
Каналы : 2 канала
ChannelLayout : L R
Частота : 48,0 КГц
Частота кадров : 31,250 кадров/сек (1536 SPF)
Метод сжатия : С потерями
Размер потока : 33,3 Мбайт (10%)
Выравнивание : Разделение по промежуткам
Продолжительность промежутка : 42 мс. (1,00 видеокадр)
Время предзагрузки промежутка : 500 мс.
Аудио #2
Идентификатор : 2
Формат : AC-3
Формат/Информация : Audio Coding 3
Коммерческое название : Dolby Digital
Идентификатор кодека : 2000
Продолжительность : 24 м. 15 с.
Вид битрейта : Постоянный
Битрейт : 192 Кбит/сек
Каналы : 2 канала
ChannelLayout : L R
Частота : 48,0 КГц
Частота кадров : 31,250 кадров/сек (1536 SPF)
Метод сжатия : С потерями
Размер потока : 33,3 Мбайт (10%)
Выравнивание : Разделение по промежуткам
Продолжительность промежутка : 42 мс. (1,00 видеокадр)
Время предзагрузки промежутка : 500 мс.

Список эпизодов

01. Начало истории
02. Воспоминания
03. В то время
04. Экскурсия
05. Встреча
06. Добро пожаловать
07. Письма
08. Будущее
09. Выходной
10. Дождливый день
11. Шрам
12. Выпускной

Скриншоты

Релиз / Автор рипа: Deadmauvlad ^_^
[korsars.pro].t28886.torrent 
Торрент: Зарегистрирован [ 2020-05-20 18:53 ] · 39A8B281E23A25A4BC57D69FCC2D10D060C8BD0F

Скачать .torrent

Размер .torrent файла 23 KB

Статус: проверено
.torrent скачан: 11 раз
Размер: 3,92 GB
Правила
Похожие темы

Вы не зарегистрированы на нашем сайте. Вам доступна для скачивания только часть контента. Чтобы увидеть весь контент сайта, пожалуйста, зарегистрироруйтесь.

Дешевый и быстрый Сидбокс

Ключи и пин-коды

Игры, Кредитные карты, IP-телефония, Интернет провайдеры, Мобильная связь, Спутниковое ТВ

Электронные книги

Бизнес и экономика, Дом, быт, семья, досуг, Санкт-Петербург, Компьютеры и интернет, Наука и образование, Техническая литература, Юридическая литература

Цифровые товары

iTunes & App Store, Базы данных, Дизайн, Доступ к ресурсам, Kарты продления, ключи, Фотографии, Шаблоны для сайтов

Программное обеспечение

Безопасность, Игры, PC, Интернет, Мобильная связь, Программирование, Продвижение сайтов (SEO), Утилиты
У Вас отключен VIP статус, поэтому Вам показывается реклама на сайте. Вы можете поддержать наш ресурс и приобрести VIP статус, тем самым отключив показ рекламы на сайте, а ещё VIP пользователи получают возможность

смотреть аниме онлайн в HD качестве

(не распространяется на раздел Flarrow Films), а так же получить 5 инвайтов, которыми можно поделиться с друзьями или знакомыми.
Дешевый и быстрый Сидбокс

Ключи и пин-коды

Игры, Кредитные карты, IP-телефония, Интернет провайдеры, Мобильная связь, Спутниковое ТВ

Электронные книги

Бизнес и экономика, Дом, быт, семья, досуг, Санкт-Петербург, Компьютеры и интернет, Наука и образование, Техническая литература, Юридическая литература

Цифровые товары

iTunes & App Store, Базы данных, Дизайн, Доступ к ресурсам, Kарты продления, ключи, Фотографии, Шаблоны для сайтов

Программное обеспечение

Безопасность, Игры, PC, Интернет, Мобильная связь, Программирование, Продвижение сайтов (SEO), Утилиты
[Профиль] [ЛС]
Показать сообщения:    
Ответить на тему

Текущее время: 23-Окт 00:05

Часовой пояс: UTC + 4



Вы не можете начинать темы
Вы не можете отвечать на сообщения
Вы не можете редактировать свои сообщения
Вы не можете удалять свои сообщения
Вы не можете голосовать в опросах
Вы не можете прикреплять файлы к сообщениям
Вы можете скачивать файлы
Анализ сайта korsars.pro Яндекс.Метрика