Темная Лига справедливости: Война Апоколипса / Justice League Dark: Apokolips War (2020) WEBRip 1080p | Flarrow Films

Ответить на тему
Статистика раздачи [Обновить пиров]
Размер:  3,03 GB   |    Зарегистрирован:  1 год 5 месяцев   |    .torrent скачан:  16 раз
Раздают:  56  [  0 KB/s  ]   Качают:  16  [  0 KB/s  ]   Подробная статистика пиров
 
   
 
 
Автор Сообщение

flarrowfilms ®

Оффлайн

Медали
VIPДруг трекераСупер Мега Контер Квейк


Пол: Не указан

Стаж: 1 год 6 месяцев

Наличие запрета:

Сообщений: 100

Отдача: 5 Mb/s

Загрузка: 5 Mb/s

Нажми


Скачать Adguard бесплатно

Создавать темы 13-Май-2020 20:19

[Цитировать]

Информация о фильме
Название: Темная Лига справедливости: Война Апоколипса
Оригинальное название: Justice League Dark: Apokolips War
Год выхода: 2020
Жанр: мультфильм, ужасы, фантастика, фэнтези, боевик
Режиссер: Мэтт Питерс, Christina Sotta
В ролях: Розарио Доусон, Ребекка Ромейн, Рэйн Уилсон, Таисса Фармига, Джерри О'Коннелл, Камилла Ладдингтон, Шемар Мур, Тони Тодд, Джейсон О'Мара, Джон Ди Маджио
О фильме:
Когда тиран Дарксайд вторгается на планету Земля, лишь отважная Лига Справедливости может спасти её от глобального уничтожения. Самые сильные герои собираются вместе, чтобы дать последний бой, но проигрывают. Потери ужасны, и теперь им придется жить под гнетом Дарксайда и залечивать раны потерь.

Страна: США
Продолжительность: 01:30:07
Перевод: Профессиональный (многоголосый, закадровый) | Flarrow Films
Роли озвучивали: Антон Алёхин, Дмитрий Савкин, Ахилл Намазов, Алексей Ядренников, Семён Евсиков, Лена Лунина, Денис Кузьмичёв, Максим Жидков, Ксюша Березовая, Анастасия Скачкова, Рина Чернышова, Рута Новикова и Андрей Лысeнко.
Файл
Формат: MKV
Кодек: MPEG-4 AVC
Качество: WEBRip 1080p
Видео: 1920х1080, ~ 4 490 kb/s, 23.976 FPS, 8 bits
Звук: AC-3, 320 kb/s, 2 channels, 48.0 kHz
Субтитры: отсутствуют-

MediaInfo

General
Unique ID : 221985608693643867130909823127507286004 (0xA700DF83858D0A2038912809C729B7F4)
Complete name : C:\Flarrow\Justice.League.Dark.Apokolips.War.2020.1080p.WEBRip.DD5.1.x264-CM\Justice.League.Dark.Apokolips.War.2020.mkv
Format : Matroska
Format version : Version 4
File size : 3.03 GiB
Duration : 1 h 30 min
Overall bit rate : 4 811 kb/s
Encoded date : UTC 2020-05-13 15:31:39
Writing application : mkvmerge v32.0.0 ('Astral Progressions') 64-bit
Writing library : libebml v1.3.7 + libmatroska v1.5.0
Video
ID : 1
Format : AVC
Format/Info : Advanced Video Codec
Format profile : High@L4
Format settings : CABAC / 2 Ref Frames
Format settings, CABAC : Yes
Format settings, Reference : 2 frames
Codec ID : V_MPEG4/ISO/AVC
Duration : 1 h 30 min
Bit rate : 4 490 kb/s
Width : 1 920 pixels
Height : 1 080 pixels
Display aspect ratio : 16:9
Frame rate mode : Constant
Frame rate : 23.976 (24000/1001) FPS
Color space : YUV
Chroma subsampling : 4:2:0
Bit depth : 8 bits
Scan type : Progressive
Bits/(Pixel*Frame) : 0.090
Stream size : 2.83 GiB (93%)
Writing library : x264 core 155 r2901 7d0ff22
Default : Yes
Forced : No
Color range : Limited
Color primaries : BT.709
Transfer characteristics : BT.709
Matrix coefficients : BT.709
Audio
ID : 2
Format : AC-3
Format/Info : Audio Coding 3
Commercial name : Dolby Digital
Codec ID : A_AC3
Duration : 1 h 30 min
Bit rate mode : Constant
Bit rate : 320 kb/s
Channel(s) : 2 channels
Channel layout : L R
Sampling rate : 48.0 kHz
Frame rate : 31.250 FPS (1536 SPF)
Compression mode : Lossy
Stream size : 206 MiB (7%)
Service kind : Complete Main
Default : Yes
Forced : No
-

Скриншоты

-Релиз от: Flarrow Films
Примечание: Без интро Flarrow Films-
[korsars.pro].t28703.torrent 
Торрент: Зарегистрирован [ 2020-05-13 20:19 ] · 0406AA139E79DF26CD7882B6CDC5BF2518AF3CFD

Скачать .torrent

Размер .torrent файла 15 KB

Статус: проверено
.torrent скачан: 16 раз
Размер: 3,03 GB
Правила
Похожие темы

Вы не зарегистрированы на нашем сайте. Вам доступна для скачивания только часть контента. Чтобы увидеть весь контент сайта, пожалуйста, зарегистрироруйтесь.

Дешевый и быстрый Сидбокс

Ключи и пин-коды

Игры, Кредитные карты, IP-телефония, Интернет провайдеры, Мобильная связь, Спутниковое ТВ

Электронные книги

Бизнес и экономика, Дом, быт, семья, досуг, Санкт-Петербург, Компьютеры и интернет, Наука и образование, Техническая литература, Юридическая литература

Цифровые товары

iTunes & App Store, Базы данных, Дизайн, Доступ к ресурсам, Kарты продления, ключи, Фотографии, Шаблоны для сайтов

Программное обеспечение

Безопасность, Игры, PC, Интернет, Мобильная связь, Программирование, Продвижение сайтов (SEO), Утилиты
У Вас отключен VIP статус, поэтому Вам показывается реклама на сайте. Вы можете поддержать наш ресурс и приобрести VIP статус, тем самым отключив показ рекламы на сайте, а ещё VIP пользователи получают возможность

смотреть аниме онлайн в HD качестве

(не распространяется на раздел Flarrow Films), а так же получить 5 инвайтов, которыми можно поделиться с друзьями или знакомыми.
Дешевый и быстрый Сидбокс

Ключи и пин-коды

Игры, Кредитные карты, IP-телефония, Интернет провайдеры, Мобильная связь, Спутниковое ТВ

Электронные книги

Бизнес и экономика, Дом, быт, семья, досуг, Санкт-Петербург, Компьютеры и интернет, Наука и образование, Техническая литература, Юридическая литература

Цифровые товары

iTunes & App Store, Базы данных, Дизайн, Доступ к ресурсам, Kарты продления, ключи, Фотографии, Шаблоны для сайтов

Программное обеспечение

Безопасность, Игры, PC, Интернет, Мобильная связь, Программирование, Продвижение сайтов (SEO), Утилиты
[Профиль] [ЛС]
Показать сообщения:    
Ответить на тему

Текущее время: 22-Окт 22:34

Часовой пояс: UTC + 4



Вы не можете начинать темы
Вы не можете отвечать на сообщения
Вы не можете редактировать свои сообщения
Вы не можете удалять свои сообщения
Вы не можете голосовать в опросах
Вы не можете прикреплять файлы к сообщениям
Вы можете скачивать файлы
Анализ сайта korsars.pro Яндекс.Метрика