Кошачий рай / Nekopara [S01] (2020) WEBRip от Deadmauvlad | StudioBand

Ответить на тему
Статистика раздачи [Обновить пиров]
Размер:  3,64 GB   |    Зарегистрирован:  1 год 6 месяцев   |    .torrent скачан:  10 раз
Раздают:  13  [  0 KB/s  ]   Качают:  3  [  0 KB/s  ]   Подробная статистика пиров
 
   
 
 
Автор Сообщение

4udaki ®

Оффлайн

Медали


Пол: Мужской

Стаж: 7 лет 1 месяц

Наличие запрета:

Сообщений: 12166

Откуда: korsars.pro

Отдача: 2 Mb/s

Загрузка: 20 Mb/s

Нажми


Скачать Adguard бесплатно

Создавать темы 12-Май-2020 05:00

[Цитировать]

Информация о фильме
Название: Кошачий рай
Оригинальное название: Nekopara
Год выхода: 2020
Жанр: комедия, романтика
Режиссер: Ясутака Ямамото
Автор оригинала: Заппа Го
Снято по визуальной новелле: Nekopara
В ролях: Кристен МакГуайр, Юки Яги, Люси Кристиан, Edna Gill, Lynsey Hale, Бриттани Лауда, Katlin Moon-Jones, Табита Рэй, Bryn Apprill, Joanna Beaty
О фильме: Прогулка по улице для Кашо Миназуки и его сестренки Шигурэ обернулась находкой. В найденной коробке находилось двое маленьких котят. Они были совершенно одиноки, и ребята забирают их в свой дом. Питомцам были даны клички Чокола и Ванилла. Уход и забота сделали из котят роскошных кошек. За проявленную к ним любовь они были преданы своему хозяину. И для них будет недопустима разлука с ним, если Кашо не найдет выход. Парень решил, что пора ему становиться самостоятельным и отделяться от семьи кондитеров и открывать собственное дело. А для этого следует сменить место жительства.
Кошки прознали о планах хозяина, и притаились среди его вещей. Когда Кашо обнаружил кошек, пришел в ярость. Он ведь не готов заботиться о них в условиях неопределенности, и им было бы лучше остаться дома, где они выросли. Но кошечки сочли свое решение верным и остались. Парень не терял надежды переубедить кошечек отправиться домой. Даже сестра Кашо приехала за питомцами. Кошечки уверяют, что будут помогать её брату. Необходимо подготовить упрямиц к прохождению теста на получение колокольчика. Кошечки принимаются работать в кафе, и сам их хозяин уверен, что они привлекут посетителей в его заведение.

Выпущенл: Япония, Felix Film
Продолжительность: ~ 00:24:00 (серия)
Перевод: Профессиональный (многоголосый, закадровый) | StudioBand [Wakanim]
Файл
Формат: AVI
Кодек: XviD
Качество: WEBRip
Видео: 720x400 (16:9), 23.976 fps, 1 402 kb/s (0.203 bit/pixel)
Аудио №1: AC-3, 48,0 КГц, 2 ch, 192 Кбит/сек, CBR | | Wakanim
Аудио №2: AC-3, 48,0 КГц, 2 ch, 192 /сек, CBR | | Japan (Оригинал)
Хардсаб: Русский (Надписи)
Субтитры: Русские (Полный перевод) (SovetRomantica)

Список Серий

01. Добро пожаловать в "Ля Солей"
02. Котёнок потерялся!
03. Как она там?
04. Всё бывает впервые
05. Путешествие Какао
06. Кошачья битва
07. Одни дома
08. Меланхолия Сигурэ
09. Настоящие чувства
10. Мрявк! Надо обновлять бубенчик!
11. Благодарность Какао
12. Лето! Море! Кошачий рай!

Хронология

#1 Кошачий рай - OVA (1 эп.), адаптация игры, 2017
#2 Кошачий рай ONA - Web (1 эп.), адаптация игры, 2018
#3 >>>Кошачий рай ТВ - ТВ (12 эп.), адаптация игры, 2020

MediaInfo

General
Complete name : [Deadmau- RAWS] Nekopara.2020.S01.RUS.JAP.WEBRip.Deadmauvlad.Ep.01.avi
Format : AVI
Format/Info : Audio Video Interleave
File size : 280 MiB
Duration : 21 min 44 s
Overall bit rate : 1 801 kb/s
Movie name : [Deadmau- RAWS] Кошачий.рай.2020.S01.RUS.JAP.WEBRip.Deadmauvlad.Серия.01
Director : Encoder by Deadmauvlad
Genre : комедия, романтика
Writing application : VirtualDubMod 1.5.10.3 | www.virtualdub-fr.org || (build 2550/release)
Original source form/Name : Аниме
Copyright : Encoder by Deadmauvlad
Comment : Encoder by Deadmauvlad
Video
ID : 0
Format : MPEG-4 Visual
Format profile : Advanced Simple@L5
Format settings : BVOP1 / Custom Matrix
Format settings, BVOP : 1
Format settings, QPel : No
Format settings, GMC : No warppoints
Format settings, Matrix : Custom
Codec ID : XVID
Codec ID/Hint : XviD
Duration : 21 min 44 s
Bit rate : 1 402 kb/s
Width : 720 pixels
Height : 400 pixels
Display aspect ratio : 16:9
Frame rate : 23.976 (24000/1001) FPS
Color space : YUV
Chroma subsampling : 4:2:0
Bit depth : 8 bits
Scan type : Progressive
Compression mode : Lossy
Bits/(Pixel*Frame) : 0.203
Stream size : 218 MiB (78%)
Writing library : XviD 73
Audio #1
ID : 1
Format : AC-3
Format/Info : Audio Coding 3
Commercial name : Dolby Digital
Codec ID : 2000
Duration : 21 min 44 s
Bit rate mode : Constant
Bit rate : 192 kb/s
Channel(s) : 2 channels
Channel layout : L R
Sampling rate : 48.0 kHz
Frame rate : 31.250 FPS (1536 SPF)
Bit depth : 16 bits
Compression mode : Lossy
Stream size : 29.9 MiB (11%)
Alignment : Split accross interleaves
Interleave, duration : 42 ms (1.00 video frame)
Interleave, preload duration : 500 ms
Audio #2
ID : 2
Format : AC-3
Format/Info : Audio Coding 3
Commercial name : Dolby Digital
Codec ID : 2000
Duration : 21 min 44 s
Bit rate mode : Constant
Bit rate : 192 kb/s
Channel(s) : 2 channels
Channel layout : L R
Sampling rate : 48.0 kHz
Frame rate : 31.250 FPS (1536 SPF)
Bit depth : 16 bits
Compression mode : Lossy
Stream size : 29.9 MiB (11%)
Alignment : Split accross interleaves
Interleave, duration : 42 ms (1.00 video frame)
Interleave, preload duration : 500 ms

Скриншоты

Релиз / Автор рипа: Deadmauvlad ^_^
[korsars.pro].t28668.torrent 
Торрент: Зарегистрирован [ 2020-05-12 05:00 ] · 9894A60D8C499A8C248276870406439D65A7A068

Скачать .torrent

Размер .torrent файла 22 KB

Статус: проверено
.torrent скачан: 10 раз
Размер: 3,64 GB
Правила
Похожие темы

Вы не зарегистрированы на нашем сайте. Вам доступна для скачивания только часть контента. Чтобы увидеть весь контент сайта, пожалуйста, зарегистрироруйтесь.

Дешевый и быстрый Сидбокс

Ключи и пин-коды

Игры, Кредитные карты, IP-телефония, Интернет провайдеры, Мобильная связь, Спутниковое ТВ

Электронные книги

Бизнес и экономика, Дом, быт, семья, досуг, Санкт-Петербург, Компьютеры и интернет, Наука и образование, Техническая литература, Юридическая литература

Цифровые товары

iTunes & App Store, Базы данных, Дизайн, Доступ к ресурсам, Kарты продления, ключи, Фотографии, Шаблоны для сайтов

Программное обеспечение

Безопасность, Игры, PC, Интернет, Мобильная связь, Программирование, Продвижение сайтов (SEO), Утилиты
У Вас отключен VIP статус, поэтому Вам показывается реклама на сайте. Вы можете поддержать наш ресурс и приобрести VIP статус, тем самым отключив показ рекламы на сайте, а ещё VIP пользователи получают возможность

смотреть аниме онлайн в HD качестве

(не распространяется на раздел Flarrow Films), а так же получить 5 инвайтов, которыми можно поделиться с друзьями или знакомыми.
Дешевый и быстрый Сидбокс

Ключи и пин-коды

Игры, Кредитные карты, IP-телефония, Интернет провайдеры, Мобильная связь, Спутниковое ТВ

Электронные книги

Бизнес и экономика, Дом, быт, семья, досуг, Санкт-Петербург, Компьютеры и интернет, Наука и образование, Техническая литература, Юридическая литература

Цифровые товары

iTunes & App Store, Базы данных, Дизайн, Доступ к ресурсам, Kарты продления, ключи, Фотографии, Шаблоны для сайтов

Программное обеспечение

Безопасность, Игры, PC, Интернет, Мобильная связь, Программирование, Продвижение сайтов (SEO), Утилиты
[Профиль] [ЛС]
Показать сообщения:    
Ответить на тему

Текущее время: 06-Дек 21:01

Часовой пояс: UTC + 4



Вы не можете начинать темы
Вы не можете отвечать на сообщения
Вы не можете редактировать свои сообщения
Вы не можете удалять свои сообщения
Вы не можете голосовать в опросах
Вы не можете прикреплять файлы к сообщениям
Вы можете скачивать файлы
Анализ сайта korsars.pro Яндекс.Метрика