О моём перерождении в слизь / Tensei Shitara Slime Datta Ken [S01 + Special] (2018) BDRip от Deadmauvlad | Kansai Studio

Ответить на тему
Статистика раздачи [Обновить пиров]
Размер:  8,23 GB   |    Зарегистрирован:  1 год 5 месяцев   |    .torrent скачан:  11 раз
Раздают:  6  [  0 KB/s  ]   Качают:  3  [  0 KB/s  ]   Подробная статистика пиров
 
   
 
 
Автор Сообщение

4udaki ®

Оффлайн

Медали


Пол: Мужской

Стаж: 6 лет 11 месяцев

Наличие запрета:

Сообщений: 11592

Откуда: korsars.pro

Отдача: 2 Mb/s

Загрузка: 20 Mb/s

Нажми


Скачать Adguard бесплатно

Создавать темы 11-Май-2020 05:00

[Цитировать]

Информация о фильме
Название : О моём перерождении в слизь
Оригинальное название : Tensei Shitara Slime Datta Ken / 転生したらスライムだった件
Год выхода : 2018
Тип: TV+Special
Жанр : гарем, гендерная интрига, драма, комедия, приключения, романтика, сверхъестественное, сёнэн, фэнтези
Режиссер : Кикути Ясухито
Автор оригинала: Каваками Тайки
Снято по манге: Tensei Shitara Slime Datta Ken
Возрастное ограничение: 14+
В главных ролях: Михо Окадзаки, Мэгуми Тоёгути, Тикахиро Кобаяси, Бриттни Карбовски, Асуна Томари, Канэхира Ямамото, Мао Итимити, Дзюн Фукусима, Макото Фурукава, Такуя Эгути
Описание : Жизнь тридцатисемилетнего Сатору Миками скучна и однообразна... Была. До того момента, как он, защищая коллегу, стал жертвой сумасшедшего и умер. Только вот на этом его история не заканчивается! Проснувшись волшебном мире… он превращается в слизь! Правда, в ином мире даже слизь — штука совсем непростая, и Сатору не стал исключением. Впереди его, ныне Римуру Темпеста, ждут великие свершения, а помогать ему будут товарищи и слуги, многих из которых он спасет от неминуемой смерти.

Страна : Япония
Производство : 8bit
Продолжительность : 24 Эп. по ~00:24:00 минуты + Special, 1 эп ~00:24:00 мин.
Перевод: Профессиональный многоголосый (Студия KANSAI) - Без рекламы !
Перевод: Русские субтитры: Crunchyroll
Файл
Формат: AVI
Кодек: XviD
Качество: BDRip [Исходник: [Vol.1~4Fin] Tensei shitara Slime Datta Ken BDRemux 1080p
Видео: 720x400 (16:9), 23.976 fps, 1 569 kb/s (0.227 bit/pixel)
Аудио №1: AC-3, 48,0 КГц, 2 ch, 192 Кбит/сек, CBR | | KANSAI
Аудио №2: AC-3, 48,0 КГц, 2 ch, 192 /сек, CBR | | Japan (Оригинал)
Субтитры Русские Полные / Надписи

Список Серий

01. Штормовой дракон Вельдора
02. Встреча с гоблинами
03. Сражение в деревне гоблинов
04. В королевстве дварфов
05. Король-герой, Газель Дварго
06. Сидзу
07. Повелитель пламени
08. Унаследованная воля
09. Нападение огров
10. Лорд орков
11. Габил прибыл!
12. Нарушенный механизм
13. Великая битва
14. Тот, кто всё пожирает
15. Федерация леса Джуры
16. Явление Княжны Тьмы Милим
17. Собрание
18. Подкрадывающееся зло
19. Карюбдис
20. Юки Кагурадзака
21. Ученики Сидзу
22. Как пройти лабиринт
23. Спасённые души
24. Спин-офф: Чернота и маска
24.5. Беседа: Дневник Вельдоры

Bonus содержит:

Оригинальные Опенинг и Эндинг без титров

MediaInfo

Общее
Полное имя : [Deadmau- RAWS] Tensei.Shitara.Slime.Datta.Ken.2018.S01.RUS.JAP.BDRip.Deadmauvlad.Ep.01.avi
Формат : AVI
Формат/Информация : Audio Video Interleave
Размер файла : 334 Мбайт
Продолжительность : 23 м. 43 с.
Общий поток : 1967 Кбит/сек
Название фильма : [Deadmau- RAWS] О.моём.перерождении в.слизь.2018.S01.RUS.JAP.BDRip.Deadmauvlad.Серия.01
Режиссёр : Encoder by Deadmauvlad
Жанр : приключения, фэнтези
Программа кодирования : VirtualDubMod 1.5.10.3 | www.virtualdub-fr.org || (build 2550/release)
Формат оригинала/Имя : Аниме
Авторское право : Encoder by Deadmauvlad
Примечание : Encoder by Deadmauvlad
Видео
Идентификатор : 0
Формат : MPEG-4 Visual
Профиль формата : Advanced Simple@L5
Настройки формата : BVOP1 / Custom Matrix
Параметр BVOP формата : 1
Параметр QPel формата : Нет
Параметр GMC формата : Без точки перехода
Параметр матрицы формата : Выборочная
Идентификатор кодека : XVID
Идентификатор кодека/Подсказка : XviD
Продолжительность : 23 м. 43 с.
Битрейт : 1569 Кбит/сек
Ширина : 720 пикселей
Высота : 400 пикселей
Соотношение сторон : 16:9
Частота кадров : 23,976 (24000/1001) кадра/сек
Цветовое пространство : YUV
Субдискретизация насыщенности : 4:2:0
Битовая глубина : 8 бит
Тип развёртки : Прогрессивная
Метод сжатия : С потерями
Бит/(Пиксели*Кадры) : 0.227
Размер потока : 266 Мбайт (80%)
Библиотека кодирования : XviD 73
Аудио #1
Идентификатор : 1
Формат : AC-3
Формат/Информация : Audio Coding 3
Коммерческое название : Dolby Digital
Идентификатор кодека : 2000
Продолжительность : 23 м. 42 с.
Вид битрейта : Постоянный
Битрейт : 192 Кбит/сек
Каналы : 2 канала
ChannelLayout : L R
Частота : 48,0 КГц
Частота кадров : 31,250 кадров/сек (1536 SPF)
Метод сжатия : С потерями
Размер потока : 32,5 Мбайт (10%)
Выравнивание : Разделение по промежуткам
Продолжительность промежутка : 42 мс. (1,00 видеокадр)
Время предзагрузки промежутка : 500 мс.
Аудио #2
Идентификатор : 2
Формат : AC-3
Формат/Информация : Audio Coding 3
Коммерческое название : Dolby Digital
Идентификатор кодека : 2000
Продолжительность : 23 м. 43 с.
Вид битрейта : Постоянный
Битрейт : 192 Кбит/сек
Каналы : 2 канала
ChannelLayout : L R
Частота : 48,0 КГц
Частота кадров : 31,250 кадров/сек (1536 SPF)
Метод сжатия : С потерями
Размер потока : 32,6 Мбайт (10%)
Выравнивание : Разделение по промежуткам
Продолжительность промежутка : 42 мс. (1,00 видеокадр)
Время предзагрузки промежутка : 500 мс.

Скриншоты

Релиз / Автор рипа: Deadmauvlad ^_^
[korsars.pro].t28639.torrent 
Торрент: Зарегистрирован [ 2020-05-11 05:00 ] · EA5AAAE628E74A16DD478C780ED3EAC26C1F3B34

Скачать .torrent

Размер .torrent файла 32 KB

Статус: проверено
.torrent скачан: 11 раз
Размер: 8,23 GB
Правила
eeklen(27-Дек-20), MATBITW(05-Апр-21)
Похожие темы

Вы не зарегистрированы на нашем сайте. Вам доступна для скачивания только часть контента. Чтобы увидеть весь контент сайта, пожалуйста, зарегистрироруйтесь.

Дешевый и быстрый Сидбокс

Ключи и пин-коды

Игры, Кредитные карты, IP-телефония, Интернет провайдеры, Мобильная связь, Спутниковое ТВ

Электронные книги

Бизнес и экономика, Дом, быт, семья, досуг, Санкт-Петербург, Компьютеры и интернет, Наука и образование, Техническая литература, Юридическая литература

Цифровые товары

iTunes & App Store, Базы данных, Дизайн, Доступ к ресурсам, Kарты продления, ключи, Фотографии, Шаблоны для сайтов

Программное обеспечение

Безопасность, Игры, PC, Интернет, Мобильная связь, Программирование, Продвижение сайтов (SEO), Утилиты
У Вас отключен VIP статус, поэтому Вам показывается реклама на сайте. Вы можете поддержать наш ресурс и приобрести VIP статус, тем самым отключив показ рекламы на сайте, а ещё VIP пользователи получают возможность

смотреть аниме онлайн в HD качестве

(не распространяется на раздел Flarrow Films), а так же получить 5 инвайтов, которыми можно поделиться с друзьями или знакомыми.
Дешевый и быстрый Сидбокс

Ключи и пин-коды

Игры, Кредитные карты, IP-телефония, Интернет провайдеры, Мобильная связь, Спутниковое ТВ

Электронные книги

Бизнес и экономика, Дом, быт, семья, досуг, Санкт-Петербург, Компьютеры и интернет, Наука и образование, Техническая литература, Юридическая литература

Цифровые товары

iTunes & App Store, Базы данных, Дизайн, Доступ к ресурсам, Kарты продления, ключи, Фотографии, Шаблоны для сайтов

Программное обеспечение

Безопасность, Игры, PC, Интернет, Мобильная связь, Программирование, Продвижение сайтов (SEO), Утилиты
[Профиль] [ЛС]
Показать сообщения:    
Ответить на тему

Текущее время: 28-Окт 01:48

Часовой пояс: UTC + 4



Вы не можете начинать темы
Вы не можете отвечать на сообщения
Вы не можете редактировать свои сообщения
Вы не можете удалять свои сообщения
Вы не можете голосовать в опросах
Вы не можете прикреплять файлы к сообщениям
Вы можете скачивать файлы
Анализ сайта korsars.pro Яндекс.Метрика