Форма голоса / A Silent Voice / Koe no katachi (2016) BDRip от Deadmauvlad | Reanimedia

Ответить на тему
Статистика раздачи [Обновить пиров]
Размер:  1,44 GB   |    Зарегистрирован:  1 год 5 месяцев   |    .torrent скачан:  334 раза
Раздают:  57  [  52 KB/s  ]   Качают:  9  [  0 KB/s  ]   Подробная статистика пиров
 
   
 
 
Автор Сообщение

deadmauvlad ®

Оффлайн

Медали
VIP


Пол: Мужской

Стаж: 1 год 6 месяцев

Наличие запрета:

Сообщений: 65

Откуда: Siberian Republic

Отдача: не определено

Загрузка: не определено

Нажми


Скачать Adguard бесплатно

Создавать темы 06-Май-2020 14:38

[Цитировать]

Информация о фильме
Название: Форма голоса
Оригинальное название: A Silent Voice / Koe no Katachi
Год выхода: 2016
Жанр: драма, повседневность, психология, романтика, сёнэн, школа
Режиссер: Ямада Наоко
Художник: Синохара Муцуо, Уногути Дзёдзи
В ролях: Ирино Мию, Хаями Саори, Юки Аой, Оно Кэнсё, Канэко Юки, Исикава Юй, Хан Мэгуми, Тоёнага Тосиюки, Мацуока Маю
О фильме: У "Форма Голоса" нет ни одного похожего эквивалента: ни по сюжету, ни по реализации этого сюжета. Эта история о тех, кто отличен от остальных, отличен физически, внешне, отличен духовно. Это история о издевательствах и о лицемерии, которым страдает львиная доля общества. Главная героиня не слышит и не может говорить, она подвергается издевательствам со стороны местного заводилы, но несмотря ни на что продолжает тянуться к людям и не сдаётся. Заводила попадает под раздачу и вот тут-то, те, кто спокойно смотрел до этого на его издевательства, начинают кидать камнями в него, мотивируя тем, что "совершают благой поступок". Удивительная рокировка, когда гонитель превращается в гонимого, тот момент перелома, когда он начинает понимать, что сотворил и через что пришлось пройти глухой девочке, которая ни в чём не была виновата. Это искренняя история, словно списанная с жизни, надрывно-пронзительная: с криком, слезами и прощением не только между подростками, но и между взрослыми.
-Страна: Япония
Студия: Kyoto Animation & Animation Do
Продолжительность: 02:10:03
Перевод: Профессиональный Дублированный |Reanimedia
Файл
Качество: BDRip | Исходник: [BDMV] A Silent Voice (Koe no Katachi) - Limited Edition 70.2 GB |
Формат: AVI
Кодек: XviD
Аудио кодек: AC3
Видео: 720x384 (1.85:1), 23.976 fps, 1 385 kb/s (0.209 bit/pixel)
Аудио: AC-3, 48.0 kHz, 2 ch, 192 kb/s, CBR | | Reanimedia
Русские Субтитры: Вшитые (Надписи)

MediaInfo:

General
Complete name                            : [Deadmau- RAWS] Форма.Голоса.2016.StudioBand.BDRip.Deadmauvlad.1.45.GB.avi
Format                                   : AVI
Format/Info                              : Audio Video Interleave
File size                                : 1.44 GiB
Duration                                 : 2 h 10 min
Overall bit rate                         : 1 586 kb/s
Movie name                               : [Deadmau- RAWS] Koe.no.Katach.2016.StudioBand.BDRip.Deadmauvlad
Director                                 : Encoder by Deadmauvlad
Genre                                    : романтика, сёнэн, школа
Writing application                      : VirtualDubMod 1.5.10.3 | www.virtualdub-fr.org || (build 2550/release)
Original source form/Name                : Аниме
Copyright                                : Encoder by Deadmauvlad
Comment                                  : Encoder by Deadmauvlad
Video
ID                                       : 0
Format                                   : MPEG-4 Visual
Format profile                           : Advanced Simple@L5
Format settings                          : BVOP1 / Custom Matrix
Format settings, BVOP                    : 1
Format settings, QPel                    : No
Format settings, GMC                     : No warppoints
Format settings, Matrix                  : Custom
Codec ID                                 : XVID
Codec ID/Hint                            : XviD
Duration                                 : 2 h 10 min
Bit rate                                 : 1 385 kb/s
Width                                    : 720 pixels
Height                                   : 384 pixels
Display aspect ratio                     : 1.85:1
Frame rate                               : 23.976 (24000/1001) FPS
Color space                              : YUV
Chroma subsampling                       : 4:2:0
Bit depth                                : 8 bits
Scan type                                : Progressive
Compression mode                         : Lossy
Bits/(Pixel*Frame)                       : 0.209
Stream size                              : 1.26 GiB (87%)
Writing library                          : XviD 73
Audio
ID                                       : 1
Format                                   : AC-3
Format/Info                              : Audio Coding 3
Commercial name                          : Dolby Digital
Codec ID                                 : 2000
Duration                                 : 2 h 9 min
Bit rate mode                            : Constant
Bit rate                                 : 192 kb/s
Channel(s)                               : 2 channels
Channel layout                           : L R
Sampling rate                            : 48.0 kHz
Frame rate                               : 31.250 FPS (1536 SPF)
Bit depth                                : 16 bits
Compression mode                         : Lossy
Stream size                              : 178 MiB (12%)
Alignment                                : Split accross interleaves
Interleave, duration                     : 42  ms (1.00 video frame)
Interleave, preload duration             : 500  ms

Скриншоты

Релиз / Автор рипа: Deadmauvlad ^_^
[korsars.pro].t28529.torrent 
Торрент: Зарегистрирован [ 2020-05-06 14:38 ] · CE100AEE65F0A08E5ECA4027576EE6F246F3DE69

Скачать .torrent

Размер .torrent файла 15 KB

Статус: проверено
.torrent скачан: 334 раз
Размер: 1,44 GB
Правила
4udaki(06-Май-20), Woitler(07-Май-20)
Похожие темы

Вы не зарегистрированы на нашем сайте. Вам доступна для скачивания только часть контента. Чтобы увидеть весь контент сайта, пожалуйста, зарегистрироруйтесь.

Дешевый и быстрый Сидбокс

Ключи и пин-коды

Игры, Кредитные карты, IP-телефония, Интернет провайдеры, Мобильная связь, Спутниковое ТВ

Электронные книги

Бизнес и экономика, Дом, быт, семья, досуг, Санкт-Петербург, Компьютеры и интернет, Наука и образование, Техническая литература, Юридическая литература

Цифровые товары

iTunes & App Store, Базы данных, Дизайн, Доступ к ресурсам, Kарты продления, ключи, Фотографии, Шаблоны для сайтов

Программное обеспечение

Безопасность, Игры, PC, Интернет, Мобильная связь, Программирование, Продвижение сайтов (SEO), Утилиты
У Вас отключен VIP статус, поэтому Вам показывается реклама на сайте. Вы можете поддержать наш ресурс и приобрести VIP статус, тем самым отключив показ рекламы на сайте, а ещё VIP пользователи получают возможность

смотреть аниме онлайн в HD качестве

(не распространяется на раздел Flarrow Films), а так же получить 5 инвайтов, которыми можно поделиться с друзьями или знакомыми.
Дешевый и быстрый Сидбокс

Ключи и пин-коды

Игры, Кредитные карты, IP-телефония, Интернет провайдеры, Мобильная связь, Спутниковое ТВ

Электронные книги

Бизнес и экономика, Дом, быт, семья, досуг, Санкт-Петербург, Компьютеры и интернет, Наука и образование, Техническая литература, Юридическая литература

Цифровые товары

iTunes & App Store, Базы данных, Дизайн, Доступ к ресурсам, Kарты продления, ключи, Фотографии, Шаблоны для сайтов

Программное обеспечение

Безопасность, Игры, PC, Интернет, Мобильная связь, Программирование, Продвижение сайтов (SEO), Утилиты
[Профиль] [ЛС]
Показать сообщения:    
Ответить на тему

Текущее время: 20-Окт 09:52

Часовой пояс: UTC + 4



Вы не можете начинать темы
Вы не можете отвечать на сообщения
Вы не можете редактировать свои сообщения
Вы не можете удалять свои сообщения
Вы не можете голосовать в опросах
Вы не можете прикреплять файлы к сообщениям
Вы можете скачивать файлы
Анализ сайта korsars.pro Яндекс.Метрика