Форма голоса / A Silent Voice / Koe no katachi (2016) BDRip 1080p от Fortuna.TV | iTunes

Ответить на тему
Статистика раздачи [Обновить пиров]
Размер:  4,94 GB   |    Зарегистрирован:  1 год 5 месяцев   |    .torrent скачан:  84 раза
Раздают:  16  [  333 KB/s  ]   Качают:  3  [  0 KB/s  ]   Подробная статистика пиров
 
   
 
 
Автор Сообщение

loe3df ®

Оффлайн

Медали
VIPАктивный раздающий 1Активный раздающий 2Активный релизер Аниме (100)
Активный релизер Аниме (50)Орденосец 1 степени


Пол: Не указан

Стаж: 1 год 10 месяцев

Наличие запрета:

Сообщений: 452

Откуда: Die Welt von Hentai

Отдача: не определено

Загрузка: не определено

Нажми


Скачать Adguard бесплатно

Создавать темы 05-Май-2020 11:53

[Цитировать]

Форма голоса / Koe no Katachi- Год выпуска: 2016
Страна: Япония
Жанр: драма, повседневность, сёнэн, школа, психология, романтика,
Продолжительность: ~ 02:09:32
Перевод: Дублированный | iTunes
Режиссёр: Ямада Наоко
Субтитры: русские субтитры
Izakaya (.ass) - только надписи (переводчики: Onami, Nyashl, редактор, оформление: nippa, QC: Ryuji)
drnndy (.ass) - полные (текст)-Рейтинг:
-Описание:
Молодой человек Сёя Исида внезапно осознаёт, что в школе умудрился превратить жизнь одноклассницы Сёко в ад только потому, что та была глухая. И теперь, хоть и запоздало, парень понял - чтобы сказать нечто важное тому, кто не может тебя услышать, вовсе не обязательно использовать голос.-Качество: BDRip 1080p
Формат: MKV (MPEG-4 AVC)
Видео: 1920x1036, ~ 3 921 kb/s, 23.976 FPS. 8 bits
Аудио RUS: AAC LC, ~ 320 kb/s, 6 channels, 48.0 kHz
Аудио JAP: FLAC, ~ 1 201 kb/s, 2 channels, 48.0 kHz-

Скриншоты

MediaInfo

General
Unique ID : 335591750118605366629441520104074609323 (0xFC789EBC884295C47854B076830382AB)
Complete name : [Fortuna.TV] Форма голоса [BDRip 1080p].mkv
Format : Matroska
Format version : Version 4
File size : 4.81 GiB
Duration : 2 h 10 min
Overall bit rate mode : Variable
Overall bit rate : 5 295 kb/s
Encoded date : UTC 2020-05-05 19:37:18
Writing application : mkvmerge v39.0.0 ('In The Waiting Line') 64-bit
Writing library : libebml v1.3.9 + libmatroska v1.5.2
Video
ID : 1
Format : AVC
Format/Info : Advanced Video Codec
Format profile : High@L5
Format settings : CABAC / 5 Ref Frames
Format settings, CABAC : Yes
Format settings, Reference frames : 5 frames
Codec ID : V_MPEG4/ISO/AVC
Duration : 2 h 9 min
Bit rate : 3 921 kb/s
Width : 1 920 pixels
Height : 1 036 pixels
Display aspect ratio : 1.85:1
Frame rate mode : Constant
Frame rate : 23.976 (24000/1001) FPS
Color space : YUV
Chroma subsampling : 4:2:0
Bit depth : 8 bits
Scan type : Progressive
Bits/(Pixel*Frame) : 0.082
Stream size : 3.55 GiB (74%)
Writing library : x264 core 148 r2638 7599210
Encoding settings : cabac=1 / ref=5 / deblock=1:1:1 / analyse=0x3:0x113 / me=umh / subme=9 / psy=1 / psy_rd=0.70:0.00 / mixed_ref=1 / me_range=32 / chroma_me=1 / trellis=0 / 8x8dct=1 / cqm=0 / deadzone=21,11 / fast_pskip=0 / chroma_qp_offset=-2 / threads=12 / lookahead_threads=1 / sliced_threads=0 / nr=0 / decimate=1 / interlaced=0 / bluray_compat=0 / constrained_intra=0 / bframes=3 / b_pyramid=2 / b_adapt=2 / b_bias=0 / direct=1 / weightb=1 / open_gop=0 / weightp=2 / keyint=240 / keyint_min=23 / scenecut=40 / intra_refresh=0 / rc_lookahead=40 / rc=crf / mbtree=1 / crf=16.0 / qcomp=0.60 / qpmin=0 / qpmax=69 / qpstep=4 / ip_ratio=1.40 / aq=1:1.00
Language : Japanese
Default : Yes
Forced : No
Audio #1
ID : 2
Format : AAC LC
Format/Info : Advanced Audio Codec Low Complexity
Codec ID : A_AAC-2
Duration : 2 h 9 min
Bit rate : 181 kb/s
Channel(s) : 2 channels
Channel layout : L R
Sampling rate : 48.0 kHz
Frame rate : 46.875 FPS (1024 SPF)
Compression mode : Lossy
Stream size : 168 MiB (3%)
Title : Reanimedia
Language : Russian
Default : Yes
Forced : No
Audio #2
ID : 3
Format : FLAC
Format/Info : Free Lossless Audio Codec
Codec ID : A_FLAC
Duration : 2 h 10 min
Bit rate mode : Variable
Bit rate : 1 201 kb/s
Channel(s) : 2 channels
Channel layout : L R
Sampling rate : 48.0 kHz
Frame rate : 11.719 FPS (4096 SPF)
Bit depth : 24 bits
Compression mode : Lossless
Stream size : 1.09 GiB (23%)
Writing library : libFLAC 1.3.2 (UTC 2017-01-01)
Language : Japanese
Default : No
Forced : No
Text #1
ID : 4
Format : ASS
Codec ID : S_TEXT/ASS
Codec ID/Info : Advanced Sub Station Alpha
Duration : 2 h 8 min
Bit rate : 150 b/s
Count of elements : 1291
Compression mode : Lossless
Stream size : 142 KiB (0%)
Title : Izakaya (надписи)
Language : Russian
Default : No
Forced : No
Text #2
ID : 5
Format : ASS
Codec ID : S_TEXT/ASS
Codec ID/Info : Advanced Sub Station Alpha
Duration : 2 h 3 min
Bit rate : 113 b/s
Count of elements : 1762
Compression mode : Lossless
Stream size : 103 KiB (0%)
Title : drnndy (полные)
Language : Russian
Default : No
Forced : No
Фильм предоставил: Fartuna.TV
Ретайминг: Adventurer_Kun-29.06.2020 обновлено. Обновлён дубляж на 6 канальный звук iTunes

Релиз подготовлен Fortuna.TV

[korsars.pro].t28504.torrent 
Торрент: Зарегистрирован [ 2020-06-29 21:35 ] · 2EB54D5CA7948E4074A0F2F90C427A54202B1A86

Скачать .torrent

Размер .torrent файла 13 KB

Статус: проверено
.torrent скачан: 84 раз
Размер: 4,94 GB
Правила
Похожие темы

Вы не зарегистрированы на нашем сайте. Вам доступна для скачивания только часть контента. Чтобы увидеть весь контент сайта, пожалуйста, зарегистрироруйтесь.

Дешевый и быстрый Сидбокс

Ключи и пин-коды

Игры, Кредитные карты, IP-телефония, Интернет провайдеры, Мобильная связь, Спутниковое ТВ

Электронные книги

Бизнес и экономика, Дом, быт, семья, досуг, Санкт-Петербург, Компьютеры и интернет, Наука и образование, Техническая литература, Юридическая литература

Цифровые товары

iTunes & App Store, Базы данных, Дизайн, Доступ к ресурсам, Kарты продления, ключи, Фотографии, Шаблоны для сайтов

Программное обеспечение

Безопасность, Игры, PC, Интернет, Мобильная связь, Программирование, Продвижение сайтов (SEO), Утилиты
У Вас отключен VIP статус, поэтому Вам показывается реклама на сайте. Вы можете поддержать наш ресурс и приобрести VIP статус, тем самым отключив показ рекламы на сайте, а ещё VIP пользователи получают возможность

смотреть аниме онлайн в HD качестве

(не распространяется на раздел Flarrow Films), а так же получить 5 инвайтов, которыми можно поделиться с друзьями или знакомыми.
Дешевый и быстрый Сидбокс

Ключи и пин-коды

Игры, Кредитные карты, IP-телефония, Интернет провайдеры, Мобильная связь, Спутниковое ТВ

Электронные книги

Бизнес и экономика, Дом, быт, семья, досуг, Санкт-Петербург, Компьютеры и интернет, Наука и образование, Техническая литература, Юридическая литература

Цифровые товары

iTunes & App Store, Базы данных, Дизайн, Доступ к ресурсам, Kарты продления, ключи, Фотографии, Шаблоны для сайтов

Программное обеспечение

Безопасность, Игры, PC, Интернет, Мобильная связь, Программирование, Продвижение сайтов (SEO), Утилиты


Последний раз редактировалось: loe3df (2020-06-29 21:56), всего редактировалось 8 раз(а)
[Профиль] [ЛС]

4udaki

Оффлайн

Медали


Пол: Мужской

Стаж: 7 лет 1 месяц

Наличие запрета:

Сообщений: 12166

Откуда: korsars.pro

Отдача: 2 Mb/s

Загрузка: 20 Mb/s

Нажми


Скачать Adguard бесплатно

Создавать темы 05-Май-2020 12:58 (спустя 1 час 4 минуты)

[Цитировать]

Смысл делать WEBRip, когда есть BD?
UPD. увидел, что озвучка от Reanimedia
[Профиль] [ЛС]

loe3df ®

Оффлайн

Медали
VIPАктивный раздающий 1Активный раздающий 2Активный релизер Аниме (100)
Активный релизер Аниме (50)Орденосец 1 степени


Пол: Не указан

Стаж: 1 год 10 месяцев

Наличие запрета:

Сообщений: 452

Откуда: Die Welt von Hentai

Отдача: не определено

Загрузка: не определено

Нажми


Скачать Adguard бесплатно

Создавать темы 05-Май-2020 14:41 (спустя 1 час 43 минуты)

[Цитировать]

35272Смысл делать WEBRip, когда есть BD?
UPD. увидел, что озвучка от Reanimedia
BD, будет но позже там дорожку нужно сводить.
[Профиль] [ЛС]
Показать сообщения:    
Ответить на тему

Текущее время: 06-Дек 22:02

Часовой пояс: UTC + 4



Вы не можете начинать темы
Вы не можете отвечать на сообщения
Вы не можете редактировать свои сообщения
Вы не можете удалять свои сообщения
Вы не можете голосовать в опросах
Вы не можете прикреплять файлы к сообщениям
Вы можете скачивать файлы
Анализ сайта korsars.pro Яндекс.Метрика