Хёка / Hyouka [S01 + OVA] (2012) BDRip от Deadmauvlad | L | Anilibria

Ответить на тему
Статистика раздачи [Обновить пиров]
Размер:  7,96 GB   |    Зарегистрирован:  1 год 7 месяцев   |    .torrent скачан:  6 раз
Раздают:  4  [  0 KB/s  ]   Качают:  3  [  0 KB/s  ]   Подробная статистика пиров
 
   
 
 
Автор Сообщение

4udaki ®

Онлайн

Медали


Пол: Мужской

Стаж: 7 лет 1 месяц

Наличие запрета:

Сообщений: 12171

Откуда: korsars.pro

Отдача: 2 Mb/s

Загрузка: 20 Mb/s

Нажми


Скачать Adguard бесплатно

Создавать темы 04-Май-2020 17:00

[Цитировать]

Информация о фильме
Название: Хёка (Мороженка)
Оригинальное название: Hyoka
Год выхода: 2012
Жанр: детектив, повседневность, школа
Режиссер: Такэмото Ясухиро
Автор оригинала: Ёнэдзава Хонобу
В ролях: Юити Накамура, Сатоми Сато, Дайсукэ Сакагути, Аи Каяно, Асука Конно, Ититаро Аи,Ёсихиса Кавахара ,Сиори Миками,Эйдзи Миясита,Аои Юки
О фильме: 16-летний Хотаро Орэки - бездельник и интроверт из тех, что ненавидят напрягаться. Судьба забросила его в школу Камияма, где все помешаны на клубной деятельности, и Хотаро по совету старшей сестры вступает в клуб классической литературы. По словам сестры, клуб надо спасать от закрытия – а значит, героя никто не станет беспокоить. Так что написал парень заявление, взял ключ и пошел в нужную комнату – только чтобы обнаружить там красавицу Эру Титанда из соседнего класса. Эру хрупка, мила, непосредственна и коня на скаку не остановит – но легко заставит окружающих сделать это и много чего еще. А самое главное: стоит ей услышать о детективной загадке – и элегантная принцесса превращается в агрессивного погонщика рабов. Кому отдуваться, уже догадались? Вот так Орэки стал детективом поневоле, а поняв, что деньки предстоят нескучные, к нему присоединился единственный друг Сатоси Фукубэ – энергичный живчик, успевающий везде и знающий все. Теперь, если подворачивается нечто достойное, Эру кричит «Как интересно!», Сатоси добывает информацию, а Хотаро, помучившись, находит решение. Вскоре веселая троица пополнилась подругой Фукубэ по имени Маяка Ибара, и новоявленная четверка юных сыщиков среди повседневных головоломок нашла себе настоящую загадку – судьбу бывшего ученика школы 40 с лишним лет назад. И ведь это только начало!

Страна: Япония
Студия: Kyoto Animation
Продолжительность: 22 серии x ~00:25:00 (Сериал) + 1 серия x ~00:25:00 (OVA)
Перевод: Любительский Многоголосый закадровый Zendos & Eladiel & Absurd & Silv
Файл
Качество: BDRip [Исходник: Blu-Ray Disk's]
Видео: 720x400 (16:9), 23.976 fps, 1 500 kb/s (0.217 bit/pixel)
Аудио №1: AC-3, 48,0 КГц, 2 ch, 192 Кбит/сек, CBR | | Anilibria
Аудио №2: AC-3, 48,0 КГц, 2 ch, 192 Кбит/сек, CBR | | Japan (Оригинал)
Субтитры: Русские (Полный перевод)

Список серий

S01
01. The Esteemed Classics Club has been Restored
02. Activities of the Esteemed Classics Club
03. Inheritors of the Classics Club and Its Circumstances
04. Past Days of the Classics Club and Its Glory
05. The Truth of the Classics Club and Its Past
06. To Commit a Deadly Sin
07. Seeing the True Identity
08. Let`s Go to the Screening!
09. Murder Case in the Deserted Furuoka
10. What No One Noticed
11. End Credits of the Fool
12. Practically Piled to the Ceiling
13. A Corpse by Evening
14. Wildfire
15. The Juumonji Incident
16. The Last Target
17. Kudryavka`s Order
18. Are the Mountains Sunny?
19. Anyone Who Knows
20. Sappy New Year
21. The Chocolate Files
22. Doll in the Distance
23. Хёка: То, что нужно каждому / Hyouka: Motsubeki Mono wa

Хронология

#1 >>>Hyouka - ТВ (22 эп.), адаптация серии романов, 2012
#2 Hyouka: Motsubeki Mono wa - OVA (1 эп.), spinoff (ответвление сюжета), 2012

Исходник:

[千草未萌 简] [Vol.1-11 Fin] 冰菓/Hyouka/Hyouka 262.79 GB

MediaInfo

Общее
Полное имя : [Deadmau- RAWS] Хёка.2012.S01.RUS.JAP.BDRip.Deadmauvlad.Ep.01.avi
Формат : AVI
Формат/Информация : Audio Video Interleave
Размер файла : 369 Мбайт
Продолжительность : 27 м. 13 с.
Общий поток : 1898 Кбит/сек
Название фильма : [Deadmau- RAWS] Хёка.2012.S01.RUS.JAP.BDRip.Deadmauvlad.Ep.01
Режиссёр : Encoder by Deadmauvlad
Жанр : детектив, повседневность
Программа кодирования : VirtualDubMod 1.5.10.3 | www.virtualdub-fr.org || (build 2550/release)
Формат оригинала/Имя : Аниме
Авторское право : Encoder by Deadmauvlad
Примечание : Encoder by Deadmauvlad
Видео
Идентификатор : 0
Формат : MPEG-4 Visual
Профиль формата : Advanced Simple@L5
Настройки формата : BVOP1 / Custom Matrix
Параметр BVOP формата : 1
Параметр QPel формата : Нет
Параметр GMC формата : Без точки перехода
Параметр матрицы формата : Выборочная
Идентификатор кодека : XVID
Идентификатор кодека/Подсказка : XviD
Продолжительность : 27 м. 13 с.
Битрейт : 1500 Кбит/сек
Ширина : 720 пикселей
Высота : 400 пикселей
Соотношение сторон : 16:9
Частота кадров : 23,976 (24000/1001) кадра/сек
Цветовое пространство : YUV
Субдискретизация насыщенности : 4:2:0
Битовая глубина : 8 бит
Тип развёртки : Прогрессивная
Метод сжатия : С потерями
Бит/(Пиксели*Кадры) : 0.217
Размер потока : 292 Мбайт (79%)
Библиотека кодирования : XviD 73
Аудио #1
Идентификатор : 1
Формат : AC-3
Формат/Информация : Audio Coding 3
Коммерческое название : Dolby Digital
Идентификатор кодека : 2000
Продолжительность : 27 м. 13 с.
Вид битрейта : Постоянный
Битрейт : 192 Кбит/сек
Каналы : 2 канала
ChannelLayout : L R
Частота : 48,0 КГц
Частота кадров : 31,250 кадров/сек (1536 SPF)
Метод сжатия : С потерями
Размер потока : 37,4 Мбайт (10%)
Выравнивание : Разделение по промежуткам
Продолжительность промежутка : 42 мс. (1,00 видеокадр)
Время предзагрузки промежутка : 500 мс.
Аудио #2
Идентификатор : 2
Формат : AC-3
Формат/Информация : Audio Coding 3
Коммерческое название : Dolby Digital
Идентификатор кодека : 2000
Продолжительность : 27 м. 13 с.
Вид битрейта : Постоянный
Битрейт : 192 Кбит/сек
Каналы : 2 канала
ChannelLayout : L R
Частота : 48,0 КГц
Частота кадров : 31,250 кадров/сек (1536 SPF)
Метод сжатия : С потерями
Размер потока : 37,4 Мбайт (10%)
Выравнивание : Разделение по промежуткам
Продолжительность промежутка : 42 мс. (1,00 видеокадр)
Время предзагрузки промежутка : 500 мс.

Скриншоты

Релиз / Автор рипа: Deadmauvlad ^_^
[korsars.pro].t28482.torrent 
Торрент: Зарегистрирован [ 2020-05-04 17:00 ] · A9BE0C5C886C165F54E9DBDB79A9D984046F4ECD

Скачать .torrent

Размер .torrent файла 26 KB

Статус: проверено
.torrent скачан: 6 раз
Размер: 7,96 GB
Правила

Вы не зарегистрированы на нашем сайте. Вам доступна для скачивания только часть контента. Чтобы увидеть весь контент сайта, пожалуйста, зарегистрироруйтесь.

Дешевый и быстрый Сидбокс

Ключи и пин-коды

Игры, Кредитные карты, IP-телефония, Интернет провайдеры, Мобильная связь, Спутниковое ТВ

Электронные книги

Бизнес и экономика, Дом, быт, семья, досуг, Санкт-Петербург, Компьютеры и интернет, Наука и образование, Техническая литература, Юридическая литература

Цифровые товары

iTunes & App Store, Базы данных, Дизайн, Доступ к ресурсам, Kарты продления, ключи, Фотографии, Шаблоны для сайтов

Программное обеспечение

Безопасность, Игры, PC, Интернет, Мобильная связь, Программирование, Продвижение сайтов (SEO), Утилиты
У Вас отключен VIP статус, поэтому Вам показывается реклама на сайте. Вы можете поддержать наш ресурс и приобрести VIP статус, тем самым отключив показ рекламы на сайте, а ещё VIP пользователи получают возможность

смотреть аниме онлайн в HD качестве

(не распространяется на раздел Flarrow Films), а так же получить 5 инвайтов, которыми можно поделиться с друзьями или знакомыми.
Дешевый и быстрый Сидбокс

Ключи и пин-коды

Игры, Кредитные карты, IP-телефония, Интернет провайдеры, Мобильная связь, Спутниковое ТВ

Электронные книги

Бизнес и экономика, Дом, быт, семья, досуг, Санкт-Петербург, Компьютеры и интернет, Наука и образование, Техническая литература, Юридическая литература

Цифровые товары

iTunes & App Store, Базы данных, Дизайн, Доступ к ресурсам, Kарты продления, ключи, Фотографии, Шаблоны для сайтов

Программное обеспечение

Безопасность, Игры, PC, Интернет, Мобильная связь, Программирование, Продвижение сайтов (SEO), Утилиты
[Профиль] [ЛС]
Показать сообщения:    
Ответить на тему

Текущее время: 09-Дек 18:35

Часовой пояс: UTC + 4



Вы не можете начинать темы
Вы не можете отвечать на сообщения
Вы не можете редактировать свои сообщения
Вы не можете удалять свои сообщения
Вы не можете голосовать в опросах
Вы не можете прикреплять файлы к сообщениям
Вы можете скачивать файлы
Анализ сайта korsars.pro Яндекс.Метрика