Путешественник Гокудо / Gokudou-kun Manyuuki [S01] (1999) DVDRip-AVC 720p от Deadmauvlad | Shiza Project, Animegroup, Persona99

Ответить на тему
Статистика раздачи [Обновить пиров]
Размер:  15,93 GB   |    Зарегистрирован:  1 год 7 месяцев   |    .torrent скачан:  7 раз
Раздают:  2  [  0 KB/s  ]   Качают:  3  [  0 KB/s  ]   Подробная статистика пиров
 
   
 
 
 
Автор Сообщение

deadmauvlad ®

Оффлайн

Медали
VIP


Пол: Мужской

Стаж: 1 год 8 месяцев

Наличие запрета:

Сообщений: 65

Откуда: Siberian Republic

Отдача: не определено

Загрузка: не определено

Нажми


Скачать Adguard бесплатно

Создавать темы 04-Май-2020 16:51

[Цитировать]

Название: Путешественник Гокудо
Оригинальное название: Gokudou-kun Manyuuki
Год выхода: 1999
Жанр: комедия, пародия, приключения, фэнтези
Режиссер: Сугисима Кунихиса
Автор оригинала: Накамура Усаги
В главных ролях Жоржетт Рейли, Майк Таймони, Лайам О’Брайэн, Дэниэл Кевин Харрисон,Билл Роджерс,Кен Спассионе
Краткое описание: Будь у Лины Инверс сын или племянник, его точно бы звали Гокудо Юкотт Киканский! Этот нахальный блондинчик 16 лет не отягощен ни моралью, ни принципами, а хочет от жизни лишь одного – денег, славы и девочек. Он и старушку-гадалку ограбить может – нечего предсказывать всякую ерунду. Отсюда начинается цепочка приключений, в ходе которых к эгоисту-цинику Гокудо присоединяются настоящий Джинн, безбашенная красотка Рубетта и принц-ловелас Ниари. От бесчинств столь веселой компании на земле, в небесах и на море стонут короли и боги, демоны и буддистские святые – но мир в итоге становится лучше! «Гокудо» - захватывающее шоу обаятельных антигероев, где все друг друга периодически подставляют, кидают и продают – но, в итоге, отлично понимают и уживаются. Ведь «плохих людей нет», просто у каждого своя правда, и, если цели совпадают, надо работать вместе, тогда каждый выиграет больше, чем в одиночку. Короче, делай, что хочешь – и будешь прав! Даже будду Мироку, грядущего спасителя человечества, и то «просветлили»!
-Перевод №1: Любительский Многоголосый закадровый - [Mustadio, Gomer, Amelia] [Серии 01-06]SHIZA
Перевод №1.1: Любительский Одноголосый закадровый - (Мужской) [Mustadio] [Серии 06-26]SHIZA
Перевод №2: Любительский Одноголосый закадровый - (Женский) - [Animegroup][Kilmiel]
Перевод №3: Любительский Одноголосый закадровый - (Женский) - [Persona99]
Перевод №4: Субтитры + Оригинал
Продолжительность: 26 серий x ~ 00:23:00
Страна: Япония/Japan
Студия: Transarts
Возрастное ограничение: 16+
Качество: DVDRip- AVC [10bit Ver!] [720p] [**Исходник DVDRemux thx moscowgolem]
Контейнер: MKV
Кодек: AVC
Видео: 960x720 (4:3), 23.976 fps, 2 900 kb/s (0.175 bit/pixel)
Аудио №1: AC-3, 48,0 КГц, 2 ch, 192 /сек, CBR | | SHIZA
Аудио №2: AC-3, 48,0 КГц, 2 ch, 192 /сек, CBR | | Animegroup
Аудио №3: AC-3, 48,0 КГц, 2 ch, 192 /сек, CBR | | Persona99
Аудио №4: AC-3, 48,0 КГц, 2 ch, 192 /сек, CBR | | English DUB
Аудио №5: AC-3, 48,0 КГц, 2 ch, 192 /сек, CBR | | Japan (Оригинал)
Субтитры: Русские (Полный Перевод), English (Full 2 Version)
Навигация по главам (Чаптеры): Есть-

Эпизоды

01. И внезапно, я - девушка
02. Сопливый товарищ, вместе - мы сила!
03. Пожалуйста, исполните мою последнюю просьбу!
04. Королевская гонка. Готов или нет, но я иду!
05. Загадка Сфинкса
06. Не дай женщине одурачить себя
07. Шокирующая правда о третьем мужчине!
08. Принц роз, очаровывающая улыбка победы
09. Когда в невообразимой крепости Риуга...
10. Штормовая погода! Взрыв эгоистичной Богини Солнца
11. Судьба Хотоке и магических богов
12. Поиграем в доктора! Появляется Магическая Сфера!
13. Мир - разломанный мир! Какое будущее ждёт Инахо!?
14. Кризис идентификации! Я это ты, но кто ты?
15. Искушение смертоносно-прекрасных сестёр!
16. Меня, себя и обезьяну?!
17. Потрясающий дебют Сестрёнок Чингенсай!
18. Истинная сущность Меня! Быть мне обезьяним дядюшкой!
19. Мир полный любви и затрещин!
20. Кто этот ребёнок? Чей этот ребёнок? Загадка голубого яйца
21. Появление монаха Санзо! Каково оно - счастье?
22. Пробуждение Мироку! Где же счастье?
23. Санзо наносит ответный удар! Пожалуйста, верните моё тело!
24. Вернуть Источник Жизни! Я вернусь!
25. Я сплю? Удивительный восход!
26. Увидимся, ребята! Теперь меня никто не остановит!

Исходник VS Рип

Ссылка >>>>>> http://www.framecompare.com/image-compare/screenshotcomparison/9JM9MNNU
Ссылка >>>>>> https://slow.pics/c/F07Qs7iy

MediaInfo

General
Unique ID                                : 173091499129269896793590614634269579850 (0x823835CB06DF5463B447FE49FC8D1A4A)
Complete name                            : [Deadmau- RAWS] Путешественник.Гокудо.S01.RUS.JAP.DVDRip.AVC.10.Bit.Ver.Deadmauvlad.Ep.01.mkv
Format                                   : Matroska
Format version                           : Version 2
File size                                : 627 MiB
Duration                                 : 22 min 44 s
Overall bit rate                         : 3 858 kb/s
Movie name                               : [Deadmau- RAWS] Gokudou.kun.Manyuuki.S01.RUS.JAP.DVDRip.AVC.10.Bit.Ver.Deadmauvlad
Encoded date                             : UTC 2020-05-03 14:19:49
Writing application                      : mkvmerge v7.8.0 ('River Man') 32bit built on Apr  3 2015 12:11:22
Writing library                          : libebml v1.3.1 + libmatroska v1.4.2
Video
ID                                       : 1
Format                                   : AVC
Format/Info                              : Advanced Video Codec
Format profile                           : High 10@L4.1
Format settings                          : CABAC / 8 Ref Frames
Format settings, CABAC                   : Yes
Format settings, ReFrames                : 8 frames
Codec ID                                 : V_MPEG4/ISO/AVC
Duration                                 : 22 min 44 s
Bit rate                                 : 2 900 kb/s
Width                                    : 960 pixels
Height                                   : 720 pixels
Display aspect ratio                     : 4:3
Frame rate mode                          : Constant
Frame rate                               : 23.976 (24000/1001) FPS
Color space                              : YUV
Chroma subsampling                       : 4:2:0
Bit depth                                : 10 bits
Scan type                                : Progressive
Bits/(Pixel*Frame)                       : 0.175
Stream size                              : 459 MiB (73%)
Writing library                          : x264 core 152 r2851 ba24899
Encoding settings                        : cabac=1 / ref=8 / deblock=1:2:2 / analyse=0x3:0x113 / me=umh / subme=10 / psy=1 / psy_rd=1.25:0.75 / mixed_ref=0 / me_range=42 / chroma_me=1 / trellis=2 / 8x8dct=1 / cqm=0 / deadzone=21,11 / fast_pskip=1 / chroma_qp_offset=-3 / threads=18 / lookahead_threads=4 / sliced_threads=0 / nr=0 / decimate=1 / interlaced=0 / bluray_compat=0 / constrained_intra=0 / bframes=14 / b_pyramid=2 / b_adapt=2 / b_bias=0 / direct=1 / weightb=1 / open_gop=0 / weightp=2 / keyint=240 / keyint_min=23 / scenecut=40 / intra_refresh=0 / rc_lookahead=60 / rc=2pass / mbtree=1 / bitrate=2900 / ratetol=1.0 / qcomp=0.60 / qpmin=2 / qpmax=81 / qpstep=4 / cplxblur=20.0 / qblur=0.5 / ip_ratio=1.45 / aq=1:1.50
Language                                 : Russian
Default                                  : No
Forced                                   : No
Color range                              : Limited
Color primaries                          : BT.709
Transfer characteristics                 : BT.709
Matrix coefficients                      : BT.709
Audio #1
ID                                       : 2
Format                                   : AC-3
Format/Info                              : Audio Coding 3
Commercial name                          : Dolby Digital
Codec ID                                 : A_AC3
Duration                                 : 22 min 44 s
Bit rate mode                            : Constant
Bit rate                                 : 192 kb/s
Channel(s)                               : 2 channels
Channel layout                           : L R
Sampling rate                            : 48.0 kHz
Frame rate                               : 31.250 FPS (1536 SPF)
Bit depth                                : 16 bits
Compression mode                         : Lossy
Stream size                              : 31.2 MiB (5%)
Title                                    : [Russian][MVO & Mustadio][SHIZA Project]
Language                                 : Russian
Service kind                             : Complete Main
Default                                  : No
Forced                                   : No
Audio #2
ID                                       : 3
Format                                   : AC-3
Format/Info                              : Audio Coding 3
Commercial name                          : Dolby Digital
Codec ID                                 : A_AC3
Duration                                 : 22 min 44 s
Bit rate mode                            : Constant
Bit rate                                 : 192 kb/s
Channel(s)                               : 2 channels
Channel layout                           : L R
Sampling rate                            : 48.0 kHz
Frame rate                               : 31.250 FPS (1536 SPF)
Bit depth                                : 16 bits
Compression mode                         : Lossy
Stream size                              : 31.2 MiB (5%)
Title                                    : Stereo
Language                                 : Japanese
Service kind                             : Complete Main
Default                                  : No
Forced                                   : No
Audio #3
ID                                       : 4
Format                                   : AC-3
Format/Info                              : Audio Coding 3
Commercial name                          : Dolby Digital
Codec ID                                 : A_AC3
Duration                                 : 22 min 44 s
Bit rate mode                            : Constant
Bit rate                                 : 192 kb/s
Channel(s)                               : 2 channels
Channel layout                           : L R
Sampling rate                            : 48.0 kHz
Frame rate                               : 31.250 FPS (1536 SPF)
Bit depth                                : 16 bits
Compression mode                         : Lossy
Stream size                              : 31.2 MiB (5%)
Title                                    : [Russian][Kilmiel][Animegroup]
Language                                 : Russian
Service kind                             : Complete Main
Default                                  : No
Forced                                   : No
Audio #4
ID                                       : 5
Format                                   : AC-3
Format/Info                              : Audio Coding 3
Commercial name                          : Dolby Digital
Codec ID                                 : A_AC3
Duration                                 : 22 min 44 s
Bit rate mode                            : Constant
Bit rate                                 : 192 kb/s
Channel(s)                               : 2 channels
Channel layout                           : L R
Sampling rate                            : 48.0 kHz
Frame rate                               : 31.250 FPS (1536 SPF)
Bit depth                                : 16 bits
Compression mode                         : Lossy
Stream size                              : 31.2 MiB (5%)
Title                                    : [Russian][Persona99]
Language                                 : Russian
Service kind                             : Complete Main
Default                                  : No
Forced                                   : No
Audio #5
ID                                       : 6
Format                                   : AC-3
Format/Info                              : Audio Coding 3
Commercial name                          : Dolby Digital
Codec ID                                 : A_AC3
Duration                                 : 22 min 44 s
Bit rate mode                            : Constant
Bit rate                                 : 192 kb/s
Channel(s)                               : 2 channels
Channel layout                           : L R
Sampling rate                            : 48.0 kHz
Frame rate                               : 31.250 FPS (1536 SPF)
Bit depth                                : 16 bits
Compression mode                         : Lossy
Stream size                              : 31.2 MiB (5%)
Title                                    : Stereo
Language                                 : English
Service kind                             : Complete Main
Default                                  : No
Forced                                   : No
Text #1
ID                                       : 7
Format                                   : ASS
Codec ID                                 : S_TEXT/ASS
Codec ID/Info                            : Advanced Sub Station Alpha
Compression mode                         : Lossless
Title                                    : Russian Vik Pol
Language                                 : Russian
Default                                  : No
Forced                                   : No
Text #2
ID                                       : 8
Format                                   : UTF-8
Codec ID                                 : S_TEXT/UTF8
Codec ID/Info                            : UTF-8 Plain Text
Title                                    : English
Language                                 : English
Default                                  : No
Forced                                   : No
Menu
00:00:00.000                             : en:Chapter 01
00:02:16.636                             : en:Chapter 02
00:11:04.964                             : en:Chapter 03
00:21:06.598                             : en:Chapter 04
00:22:25.977                             : en:Chapter 05

Скриншоты

Релиз / Автор рипа: Deadmauvlad ^_^
[korsars.pro].t28480.torrent 
Торрент: Зарегистрирован [ 2020-05-04 16:51 ] · B946BAA3CD2D549D8FDF5F5D1830ABFB41950D0A

Скачать .torrent

Размер .torrent файла 24 KB

Статус: проверено
.torrent скачан: 7 раз
Размер: 15,93 GB
Правила
4udaki(04-Май-20)
Похожие темы

Вы не зарегистрированы на нашем сайте. Вам доступна для скачивания только часть контента. Чтобы увидеть весь контент сайта, пожалуйста, зарегистрироруйтесь.

Дешевый и быстрый Сидбокс

Ключи и пин-коды

Игры, Кредитные карты, IP-телефония, Интернет провайдеры, Мобильная связь, Спутниковое ТВ

Электронные книги

Бизнес и экономика, Дом, быт, семья, досуг, Санкт-Петербург, Компьютеры и интернет, Наука и образование, Техническая литература, Юридическая литература

Цифровые товары

iTunes & App Store, Базы данных, Дизайн, Доступ к ресурсам, Kарты продления, ключи, Фотографии, Шаблоны для сайтов

Программное обеспечение

Безопасность, Игры, PC, Интернет, Мобильная связь, Программирование, Продвижение сайтов (SEO), Утилиты
У Вас отключен VIP статус, поэтому Вам показывается реклама на сайте. Вы можете поддержать наш ресурс и приобрести VIP статус, тем самым отключив показ рекламы на сайте, а ещё VIP пользователи получают возможность

смотреть аниме онлайн в HD качестве

(не распространяется на раздел Flarrow Films), а так же получить 5 инвайтов, которыми можно поделиться с друзьями или знакомыми.
Дешевый и быстрый Сидбокс

Ключи и пин-коды

Игры, Кредитные карты, IP-телефония, Интернет провайдеры, Мобильная связь, Спутниковое ТВ

Электронные книги

Бизнес и экономика, Дом, быт, семья, досуг, Санкт-Петербург, Компьютеры и интернет, Наука и образование, Техническая литература, Юридическая литература

Цифровые товары

iTunes & App Store, Базы данных, Дизайн, Доступ к ресурсам, Kарты продления, ключи, Фотографии, Шаблоны для сайтов

Программное обеспечение

Безопасность, Игры, PC, Интернет, Мобильная связь, Программирование, Продвижение сайтов (SEO), Утилиты
[Профиль] [ЛС]
Показать сообщения:    
Ответить на тему

Текущее время: 09-Дек 17:11

Часовой пояс: UTC + 4



Вы не можете начинать темы
Вы не можете отвечать на сообщения
Вы не можете редактировать свои сообщения
Вы не можете удалять свои сообщения
Вы не можете голосовать в опросах
Вы не можете прикреплять файлы к сообщениям
Вы можете скачивать файлы
Анализ сайта korsars.pro Яндекс.Метрика