Небо и земля / Tenjho Tenge [S01+OVA] (2004) BDRip от Deadmauvlad | D | Лицензия

Ответить на тему
Статистика раздачи [Обновить пиров]
Размер:  9,97 GB   |    Зарегистрирован:  1 год 7 месяцев   |    .torrent скачан:  10 раз

Полного источника не было: Никогда

Качают:  3  [  0 KB/s  ]   Подробная статистика пиров
 
   
 
 
 
Автор Сообщение

4udaki ®

Оффлайн

Медали


Пол: Мужской

Стаж: 7 лет 1 месяц

Наличие запрета:

Сообщений: 12166

Откуда: korsars.pro

Отдача: 2 Mb/s

Загрузка: 20 Mb/s

Нажми


Скачать Adguard бесплатно

Создавать темы 02-Май-2020 21:00

[Цитировать]

Название: Небо и земля / На земле и на небесах
Оригинальное название: Heaven and Earth / Tenjho Tenge / 天上天下 THE PAST CHAPTER
Год: 2004
Жанр: боевые искусства, драма, комедия, этти
Выпуск: с 2 июня 2003
Трансляция: понедельник
Режиссер: Рюити Кимура, Кодзи Аритоми, Кадзуя Комаи
Автор оригинала: Great! Oh
Снято по манге: Tenjou Tenge
В главных ролях: Дзюнъити Сувабэ, Ая Хисакава, Соитиро Хоси, Минори Тихара, Томокадзу Сэки, Синъитиро Мики, Харухи Нанао, Рёко Сираиси, Кэнта Миякэ, Кэндзи Хамада-Описание: Боб Макихара и Сотиро Наги, друзья, единственное желание которых доказать, что они самые сильные и главные в школе. Они решали это кулаками и ни одна академия не могла вытерпеть такого, им приходилось менять их как перчатки и вот в один прекрасный момент, они попадают туда, где доказать свое первенство стало практически невозможным, они попали в Академию Тодо. При первой же стычке Майя Нацумэ, в пару секунд надавала им тумаков, их кулаки оказались бессильны. Да, они попали в школу боевых искусств, где собраны лучшие файтеры со всей Японии. Они вступают в клуб Дзюкен к ней и ее сестре Айе, с намерением натренероваться и стать лучшими бойцами среди всех.
-Производство: Япония
Студия: Madhouse Studios
Продолжительность: 24 x ~00:24:00 + 02xOVA x ~00:24:00
Перевод: Профессиональный (полное дублирование) Mega-Anime [Лицензия]
Возрастное ограничение: 16+
Файл
Качество: BDRip [Исходник: Blu-Ray Disk thx taskforce & Neko_FeliXXX]
Контейнер: *AVI
Кодек: XviD
Видео: 720x528 (4:3), 23.976 fps, 1 673 kb/s (0.183 bit/pixel)
Аудио: AC-3, 48.0 kHz, 6 ch, 448 kb/s, CBR | | Mega-Anime
Аудио №2: AC-3, 48.0 kHz, 2 ch, 192 kb/s, CBR | | Japan (Оригинал)
Субтитры: Русские

Список эпизодов:

01. Sacred Area / Святилище
02. Defeat / Поражение
03. Enforcer / Исполнитель
04. Doubt / Подозрение
05. Punishment / Наказание
06. Illusion / Видение
07. Crushed / Уничтожение
08. Dragon Eye / Глаз дракона
09. Regulation / Принуждение
10. Memory / Воспоминания
11. One Who Has Abnormal Abilities / Обладающий потусторонней силой
12. Darkness / Тьма
13. Bewitchment / Дьявольская сила
14. Hellfire / Адское пламя
15. Yin and Yang / Инь и ян
16. Conclusion / Заключение
17. True Meaning / Истинные намерения
18. Resonance / Резонанс
19. Activation / Пуск
20. Stratagem / Заговор
21. Spontaneous Explosion / Случайный удар
22. Resolution / Решимость
23. Binding Spell / Проклятие
24. Wandering / Чередование
25. Dragon Fist (OVA) / Кулак дракона
26. Budding (OVA)/ Прорастание

Bonus содержит

Оригинальные Опенинг и Эндинг без титров

MediaInfo

General
Complete name : [Deadmau- RAWS] Tenjou.Tenge.2004.S01.Rus.Jap.BDRip.Deadmauvlad.EP.01.avi
Format : AVI
Format/Info : Audio Video Interleave
File size : 391 MiB
Duration : 23 min 27 s
Overall bit rate : 2 327 kb/s
Movie name : [Deadmau- RAWS] Небо.И.Земля.2004.S01.Rus.Jap.BDRip.Deadmauvlad.Серия.01
Director : Encoder by Deadmauvlad
Genre : Этти, Файтинг, Сёнен
Writing application : VirtualDubMod 1.5.10.3 | www.virtualdub-fr.org || (build 2550/release)
Original source form/Name : Аниме
Copyright : Encoder by Deadmauvlad
Comment : Encoder by Deadmauvlad
Video
ID : 0
Format : MPEG-4 Visual
Format profile : Advanced Simple@L5
Format settings : BVOP1 / Custom Matrix
Format settings, BVOP : 1
Format settings, QPel : No
Format settings, GMC : No warppoints
Format settings, Matrix : Custom
Codec ID : XVID
Codec ID/Hint : XviD
Duration : 23 min 27 s
Bit rate : 1 673 kb/s
Width : 720 pixels
Height : 528 pixels
Display aspect ratio : 4:3
Frame rate : 23.976 (24000/1001) FPS
Color space : YUV
Chroma subsampling : 4:2:0
Bit depth : 8 bits
Scan type : Progressive
Compression mode : Lossy
Bits/(Pixel*Frame) : 0.183
Stream size : 281 MiB (72%)
Writing library : XviD 73
Audio #1
ID : 1
Format : AC-3
Format/Info : Audio Coding 3
Commercial name : Dolby Digital
Codec ID : 2000
Duration : 23 min 27 s
Bit rate mode : Constant
Bit rate : 448 kb/s
Channel(s) : 6 channels
Channel layout : L R C LFE Ls Rs
Sampling rate : 48.0 kHz
Frame rate : 31.250 FPS (1536 SPF)
Bit depth : 16 bits
Compression mode : Lossy
Delay relative to video : 296 ms
Stream size : 75.2 MiB (19%)
Alignment : Split accross interleaves
Interleave, duration : 42 ms (1.00 video frame)
Interleave, preload duration : 500 ms
Audio #2
ID : 2
Format : AC-3
Format/Info : Audio Coding 3
Commercial name : Dolby Digital
Codec ID : 2000
Duration : 23 min 27 s
Bit rate mode : Constant
Bit rate : 192 kb/s
Channel(s) : 2 channels
Channel layout : L R
Sampling rate : 48.0 kHz
Frame rate : 31.250 FPS (1536 SPF)
Bit depth : 16 bits
Compression mode : Lossy
Stream size : 32.2 MiB (8%)
Alignment : Split accross interleaves
Interleave, duration : 42 ms (1.00 video frame)
Interleave, preload duration : 500 ms

Скриншоты

ЦитатаИсходник писал:[BDMV] Tenjho Tenge (2004) AVC 1080p 2xBD50 83.1 GiBРелиз / Автор рипа: Deadmauvlad
[korsars.pro].t28440.torrent 
Торрент: Зарегистрирован [ 2020-05-02 21:00 ] · B0F5222F7F0AED552A02A9D9DBE8B8A49A986E2C

Скачать .torrent

Размер .torrent файла 32 KB

Статус: проверено
.torrent скачан: 10 раз
Размер: 9,97 GB
Правила
deadmauvlad(02-Май-20)
Похожие темы

Вы не зарегистрированы на нашем сайте. Вам доступна для скачивания только часть контента. Чтобы увидеть весь контент сайта, пожалуйста, зарегистрироруйтесь.

Дешевый и быстрый Сидбокс

Ключи и пин-коды

Игры, Кредитные карты, IP-телефония, Интернет провайдеры, Мобильная связь, Спутниковое ТВ

Электронные книги

Бизнес и экономика, Дом, быт, семья, досуг, Санкт-Петербург, Компьютеры и интернет, Наука и образование, Техническая литература, Юридическая литература

Цифровые товары

iTunes & App Store, Базы данных, Дизайн, Доступ к ресурсам, Kарты продления, ключи, Фотографии, Шаблоны для сайтов

Программное обеспечение

Безопасность, Игры, PC, Интернет, Мобильная связь, Программирование, Продвижение сайтов (SEO), Утилиты
У Вас отключен VIP статус, поэтому Вам показывается реклама на сайте. Вы можете поддержать наш ресурс и приобрести VIP статус, тем самым отключив показ рекламы на сайте, а ещё VIP пользователи получают возможность

смотреть аниме онлайн в HD качестве

(не распространяется на раздел Flarrow Films), а так же получить 5 инвайтов, которыми можно поделиться с друзьями или знакомыми.
Дешевый и быстрый Сидбокс

Ключи и пин-коды

Игры, Кредитные карты, IP-телефония, Интернет провайдеры, Мобильная связь, Спутниковое ТВ

Электронные книги

Бизнес и экономика, Дом, быт, семья, досуг, Санкт-Петербург, Компьютеры и интернет, Наука и образование, Техническая литература, Юридическая литература

Цифровые товары

iTunes & App Store, Базы данных, Дизайн, Доступ к ресурсам, Kарты продления, ключи, Фотографии, Шаблоны для сайтов

Программное обеспечение

Безопасность, Игры, PC, Интернет, Мобильная связь, Программирование, Продвижение сайтов (SEO), Утилиты
[Профиль] [ЛС]
Показать сообщения:    
Ответить на тему

Текущее время: 06-Дек 20:56

Часовой пояс: UTC + 4



Вы не можете начинать темы
Вы не можете отвечать на сообщения
Вы не можете редактировать свои сообщения
Вы не можете удалять свои сообщения
Вы не можете голосовать в опросах
Вы не можете прикреплять файлы к сообщениям
Вы можете скачивать файлы
Анализ сайта korsars.pro Яндекс.Метрика