Помолвлена с незнакомцем / Engaged to the Unidentified [S01 + OVA + Спешел] (2014) BDRip от Deadmauvlad | Shiza Project

Ответить на тему
Статистика раздачи [Обновить пиров]
Размер:  3,81 GB   |    Зарегистрирован:  1 год 7 месяцев   |    .torrent скачан:  3 раза
Раздают:  2  [  0 KB/s  ]   Качают:  3  [  0 KB/s  ]   Подробная статистика пиров
 
   
 
 
 
Автор Сообщение

deadmauvlad ®

Оффлайн

Медали
VIP


Пол: Мужской

Стаж: 1 год 8 месяцев

Наличие запрета:

Сообщений: 65

Откуда: Siberian Republic

Отдача: не определено

Загрузка: не определено

Нажми


Скачать Adguard бесплатно

Создавать темы 01-Май-2020 22:38

[Цитировать]


Русское название: Помолвлена с незнакомцем
Оригинальное название: Mikakunin de Shinkoukei
Английское название: Engaged to the Unidentified
Год выхода: 2014
Жанр: комедия, повседневность, романтика
Режиссер: Фудзивара Ёсиюки
Автор оригинала: Арай Шерри
Снято по манге: Mikakunin de Shinkoukei
В главных ролях: Хатано Ватару, Эрико Мацуи, Харука Тэруи, Юри Ёсида
Описание: Кобэни Ёномори, симпатичная девушка и отличная хозяйка, получила на 16-й день рождения самый необычный подарок. Мать объявила, что по слову покойного деда, главы клана, Кобэни с детства помолвлена с наследником семьи Мицуминэ, своим ровесником по имени Хакуя. Сам суженый знатного рода, но вырос в горной деревне, и, чтобы обрести городской шик и приобщиться к цивилизации, отныне будет жить с ними – а вот, кстати, и он. Окончательно добило Ёномори-младшую явление вихря энергии в виде малышки Масиро Мицуминэ, которая с порога заявила, что не отдаст братика абы кому и быстро научит невестку жить по закону гор! Впрочем, все вышло не так уж плохо. Малолетняя «золовка», поняв, что брату досталась вовсе не белоручка, быстро подобрела, а Бэнио, старшая из сестер Ёномори, ненавязчиво показала гостье, кто в доме хозяйка, да так, что бедная Масиро стала прятаться от будущей «сватьи». Ну а Хакуя оказался, словно самурай иной эпохи – загадочный, невозмутимый, не тратящий слов зря, но говорящий только по делу. Из обрывков фраз и прочих намеков Кобэни поняла, что помолвка возникла не на пустом месте, и их с Хакуей связывает давняя история. А раз так, незачем спешить - надо разобраться в себе и дать парню шанс. Не зря говорят – браки по расчету всегда удачны, если расчет был хороший!
--Страна: Япония
Студия: Dogakobo
Продолжительность: 12 серий x ~00:25:00 + 02 серии x ~00:13:00
Перевод: Любительский (многоголосый , закадровый) SHIZA
Роли Озвучили: Nyasheek, Snowly, Ляля, Tonya Bullet, Ruri, Lianna
Файл
Качество: BDRip [S01+Sp] / DVDRip [OVA] | Исходник: BDRemux 1080p / DVD5* |
Формат: AVI
Кодек: XviD
Аудио кодек: AC3
Видео: 720x400 (16:9), 23.976 fps, 1 410 kb/s (0.204 bit/pixel)
Аудио #1: AC-3, 48.0 kHz, 2 ch, 192 kb/s, CBR | | SHIZA
Аудио #2: AC-3, 48.0 kHz, 2 ch, 192 kb/s, CBR | | Japan (Оригинал)
Русские Субтитры: Есть в раздаче

MediaInfo:

General
Complete name : Deadmau- RAWS] Mikakunin.de.Shinkoukei.S01.RUS.JAP.BDRip.Deadmauvlad.Ep.01.avi
Format : AVI
Format/Info : Audio Video Interleave
File size : 307 MiB
Duration : 23 min 41 s
Overall bit rate : 1 808 kb/s
Movie name : [Deadmau- RAWS] Помолвлена.с.незнакомцем.S01.RUS.JAP.BDRip.Deadmauvlad.Серия.01
Director : Encoder by Deadmauvlad
Genre : комедия, романтика
Writing application : VirtualDubMod 1.5.10.3 | www.virtualdub-fr.org || (build 2550/release)
Original source form/Name : Аниме
Copyright : Encoder by Deadmauvlad
Comment : Encoder by Deadmauvlad
Video
ID : 0
Format : MPEG-4 Visual
Format profile : Advanced Simple@L5
Format settings : BVOP1 / Custom Matrix
Format settings, BVOP : 1
Format settings, QPel : No
Format settings, GMC : No warppoints
Format settings, Matrix : Custom
Codec ID : XVID
Codec ID/Hint : XviD
Duration : 23 min 41 s
Bit rate : 1 410 kb/s
Width : 720 pixels
Height : 400 pixels
Display aspect ratio : 16:9
Frame rate : 23.976 (24000/1001) FPS
Color space : YUV
Chroma subsampling : 4:2:0
Bit depth : 8 bits
Scan type : Progressive
Compression mode : Lossy
Bits/(Pixel*Frame) : 0.204
Stream size : 239 MiB (78%)
Writing library : XviD 73
Audio #1
ID : 1
Format : AC-3
Format/Info : Audio Coding 3
Commercial name : Dolby Digital
Codec ID : 2000
Duration : 23 min 41 s
Bit rate mode : Constant
Bit rate : 192 kb/s
Channel(s) : 2 channels
Channel layout : L R
Sampling rate : 48.0 kHz
Frame rate : 31.250 FPS (1536 SPF)
Bit depth : 16 bits
Compression mode : Lossy
Stream size : 32.5 MiB (11%)
Alignment : Split accross interleaves
Interleave, duration : 42 ms (1.00 video frame)
Interleave, preload duration : 500 ms
Audio #2
ID : 2
Format : AC-3
Format/Info : Audio Coding 3
Commercial name : Dolby Digital
Codec ID : 2000
Duration : 23 min 41 s
Bit rate mode : Constant
Bit rate : 192 kb/s
Channel(s) : 2 channels
Channel layout : L R
Sampling rate : 48.0 kHz
Frame rate : 31.250 FPS (1536 SPF)
Bit depth : 16 bits
Compression mode : Lossy
Stream size : 32.5 MiB (11%)
Alignment : Split accross interleaves
Interleave, duration : 42 ms (1.00 video frame)
Interleave, preload duration : 500 ms

Хронология

Помолвлена с незнакомцем - ТВ, адаптация манги, 2014
Помолвлена с незнакомцем - OVA, адаптация манги, 2014

Список эпизодов

S01
01. Первые Впечатления и Всё Такое
02. Золовка-лоли — это не так уж и плохо
03. Похоже, нас ждёт романтическая комедия
04. Она просто извращенка
05. А вот и мама
06. Заполню-ка я её золовкой
07. Они — это они, а мы — это мы
08. Только сестра излечит печаль сестры
09. Это позор,мне очень стыдно
10. Что значит,когда в тебя "влюбились"
11. Наслаждаюсь своим платочком
12. Ты понял? Да,понял
13. Помолвлена с незнакомцем: Спешл
14. Помолвлена с незнакомцем: OVA

Скриншоты

Исходники*

1. Mikakunin de Shinkoukei Blu-Ray 128.78 GB thx sqwt
2. Mikakunin de Shinkoukei DVDISO 1.98 GB thx Neko_FeliXXX
Релиз / Автор рипа: Deadmauvlad ^_^
[korsars.pro].t28421.torrent 
Торрент: Зарегистрирован [ 2020-05-01 22:38 ] · E3C3A17371809D74E2FF76BF98FD4E01A407C1EC

Скачать .torrent

Размер .torrent файла 9 KB

Статус: проверено
.torrent скачан: 3 раз
Размер: 3,81 GB
Правила
4udaki(02-Май-20)

Вы не зарегистрированы на нашем сайте. Вам доступна для скачивания только часть контента. Чтобы увидеть весь контент сайта, пожалуйста, зарегистрироруйтесь.

Дешевый и быстрый Сидбокс

Ключи и пин-коды

Игры, Кредитные карты, IP-телефония, Интернет провайдеры, Мобильная связь, Спутниковое ТВ

Электронные книги

Бизнес и экономика, Дом, быт, семья, досуг, Санкт-Петербург, Компьютеры и интернет, Наука и образование, Техническая литература, Юридическая литература

Цифровые товары

iTunes & App Store, Базы данных, Дизайн, Доступ к ресурсам, Kарты продления, ключи, Фотографии, Шаблоны для сайтов

Программное обеспечение

Безопасность, Игры, PC, Интернет, Мобильная связь, Программирование, Продвижение сайтов (SEO), Утилиты
У Вас отключен VIP статус, поэтому Вам показывается реклама на сайте. Вы можете поддержать наш ресурс и приобрести VIP статус, тем самым отключив показ рекламы на сайте, а ещё VIP пользователи получают возможность

смотреть аниме онлайн в HD качестве

(не распространяется на раздел Flarrow Films), а так же получить 5 инвайтов, которыми можно поделиться с друзьями или знакомыми.
Дешевый и быстрый Сидбокс

Ключи и пин-коды

Игры, Кредитные карты, IP-телефония, Интернет провайдеры, Мобильная связь, Спутниковое ТВ

Электронные книги

Бизнес и экономика, Дом, быт, семья, досуг, Санкт-Петербург, Компьютеры и интернет, Наука и образование, Техническая литература, Юридическая литература

Цифровые товары

iTunes & App Store, Базы данных, Дизайн, Доступ к ресурсам, Kарты продления, ключи, Фотографии, Шаблоны для сайтов

Программное обеспечение

Безопасность, Игры, PC, Интернет, Мобильная связь, Программирование, Продвижение сайтов (SEO), Утилиты
[Профиль] [ЛС]
Показать сообщения:    
Ответить на тему

Текущее время: 06-Дек 22:21

Часовой пояс: UTC + 4



Вы не можете начинать темы
Вы не можете отвечать на сообщения
Вы не можете редактировать свои сообщения
Вы не можете удалять свои сообщения
Вы не можете голосовать в опросах
Вы не можете прикреплять файлы к сообщениям
Вы можете скачивать файлы
Анализ сайта korsars.pro Яндекс.Метрика