Моя богиня! / Oh My Goddess! [OVA] (1993) DVDRip от Deadmauvlad | P | Лицензия

Ответить на тему
Статистика раздачи [Обновить пиров]
Размер:  2,36 GB   |    Зарегистрирован:  1 год 5 месяцев   |    .torrent скачан:  7 раз

Полного источника не было: Никогда

Качают:  3  [  0 KB/s  ]   Подробная статистика пиров
 
   
 
 
 
Автор Сообщение

deadmauvlad ®

Оффлайн

Медали
VIP


Пол: Мужской

Стаж: 1 год 6 месяцев

Наличие запрета:

Сообщений: 65

Откуда: Siberian Republic

Отдача: не определено

Загрузка: не определено

Нажми


Скачать Adguard бесплатно

Создавать темы 29-Апр-2020 15:14

[Цитировать]


Название:Моя богиня!
Оригинальное название: (Aa! Megami-sama) Oh My Goddess!
Год: 1993
Жанр: комедия, романтика, фэнтези
Режиссер: Года Хироаки
Автор оригинала: Фудзисима Косукэ
Снято по манге: Ах, моя богиня!
В главных ролях: Джульетт Цезарио, Кикуко Иноуэ, Масами Кикути, Скотт Симпсон, Юми Тома, Ая Хисакава, Юрико Футидзаки, Киёюки Янада, Иссэи Футамата, Дзюнко Асами
Описание: Студент первого курса Кэйити Морисато всего лишь набрал телефонный номер, собираясь заказать себе обед на дом, но не успел он повесить трубку, как из зеркала на стене появилась девушка, назвавшаяся богиней Верданди. Оказалось, что парень дозвонился в службу «Божественной Помощи», сотрудники которой, богини, предлагают нуждающимся в помощи людям исполнить любое их желание! Подумав, что всё это - шутка друзей, Кэйити решает подыграть им и желает, чтобы прекрасная Верданди всегда была рядом! Разумеется, желание тотчас исполняется, богиня остаётся с ним и становится его подружкой. Однако вскоре на Земле появляются божественные сёстры Верданди - Урд и Скульд, одна из которых изо всех сил пытается устроить личную жизнь Кэйити и Верданди, а вторая - всячески этому помешать. Может ли простой парень рассчитывать на любовь настоящей богини, если у их союза, к тому же, есть не только божественные союзники, но и могущественные противники?
-Производство: Япония
Студия: AIC
Продолжительность: 04 серия x ~ 00:28:00 01 серия x 00:38:49
Перевод : Профессиональный (многоголосый, закадровый) MC Entertainment | Лицензия
Качество: DVDRip [Rus Transfer]
Контейнер: AVI
Кодек: XviD
Видео: 720x544 (4:3), 23.976 fps, 1 434 kb/s (0.153 bit/pixel)
Аудио №1: AC-3, 48,0 КГц, 6 ch, 384 /сек, CBR | | MC Entertainment
Аудио №2: AC-3, 48,0 КГц, 6 ch, 384 /сек, CBR | | Japan (Оригинал)
Русские Субтитры: Есть (Полный Перевод)

Хронология

#1 >>>Моя богиня! OVA-1 - OVA (5 эп.), адаптация манги, 1993 ✔ (Есть в раздаче)
#2 Моя богиня! Приключения Мини-Богинь - ТВ (48 эп.), spinoff (ответвление сюжета), 1998
#3 Моя богиня! - Фильм - п/ф, продолжение OAV-сериала, 2000
#4 Моя богиня! (сезон первый) - ТВ (24 эп. + 3 спэшла), адаптация манги, 2005
#5 Моя богиня! (сезон второй) - ТВ (22 эп. + 2 спэшла), продолжение, 2006
#6 Моя богиня! (спешл) - ТВ-спэшл (2 эп.), продолжение, 2007
#7 Моя богиня! OVA-2 - OVA (3 эп.), адаптация манги, 2011

MediaInfo

Общее
Полное имя :[Deadmau- RAWS] Моя.Богиня.ОВА.1993.OVA.RUS.JAP.DVDR.Deadmauvlad.Серия.01.avi
Формат : AVI
Формат/Информация : Audio Video Interleave
Размер файла : 452 Мбайт
Продолжительность : 28 м. 30 с.
Общий поток : 2216 Кбит/сек
Режиссёр : Encoder by Deadmauvlad
Программа кодирования : VirtualDubMod 1.5.10.3 | www.virtualdub-fr.org || (build 2550/release)
Библиотека кодирования : VirtualDubMod build 2550/release
Авторское право : Encoder by Deadmauvlad
Видео
Идентификатор : 0
Формат : MPEG-4 Visual
Профиль формата : Advanced Simple@L5
Настройки формата : BVOP1 / Custom Matrix
Параметр BVOP формата : 1
Параметр QPel формата : Нет
Параметр GMC формата : Без точки перехода
Параметр матрицы формата : Выборочная
Идентификатор кодека : XVID
Идентификатор кодека/Подсказка : XviD
Продолжительность : 28 м. 30 с.
Битрейт : 1434 Кбит/сек
Ширина : 720 пикселей
Высота : 544 пикселя
Соотношение сторон : 4:3
Частота кадров : 23,976 (24000/1001) кадра/сек
Цветовое пространство : YUV
Субдискретизация насыщенности : 4:2:0
Битовая глубина : 8 бит
Тип развёртки : Прогрессивная
Метод сжатия : С потерями
Бит/(Пиксели*Кадры) : 0.153
Размер потока : 292 Мбайт (65%)
Библиотека кодирования : XviD 73
Аудио #1
Идентификатор : 1
Формат : AC-3
Формат/Информация : Audio Coding 3
Коммерческое название : Dolby Digital
Идентификатор кодека : 2000
Продолжительность : 28 м. 30 с.
Вид битрейта : Постоянный
Битрейт : 384 Кбит/сек
Каналы : 6 каналов
ChannelLayout : L R C LFE Ls Rs
Частота : 48,0 КГц
Частота кадров : 31,250 кадров/сек (1536 SPF)
Метод сжатия : С потерями
Размер потока : 78,3 Мбайт (17%)
Выравнивание : Разделение по промежуткам
Продолжительность промежутка : 42 мс. (1,00 видеокадр)
Время предзагрузки промежутка : 500 мс.
Аудио #2
Идентификатор : 2
Формат : AC-3
Формат/Информация : Audio Coding 3
Коммерческое название : Dolby Digital
Идентификатор кодека : 2000
Продолжительность : 28 м. 30 с.
Вид битрейта : Постоянный
Битрейт : 384 Кбит/сек
Каналы : 6 каналов
ChannelLayout : L R C LFE Ls Rs
Частота : 48,0 КГц
Частота кадров : 31,250 кадров/сек (1536 SPF)
Метод сжатия : С потерями
Размер потока : 78,3 Мбайт (17%)
Выравнивание : Разделение по промежуткам
Продолжительность промежутка : 42 мс. (1,00 видеокадр)
Время предзагрузки промежутка : 500 мс.

Скриншоты

Релиз / Автор рипа: Deadmauvlad ^_^
[korsars.pro].t28350.torrent 
Торрент: Зарегистрирован [ 2020-04-29 15:14 ] · C184FD3FDB8D69D5058DC11DFB12210B6A22865A

Скачать .torrent

Размер .torrent файла 5 KB

Статус: проверено
.torrent скачан: 7 раз
Размер: 2,36 GB
Правила
4udaki(30-Апр-20)
Похожие темы

Вы не зарегистрированы на нашем сайте. Вам доступна для скачивания только часть контента. Чтобы увидеть весь контент сайта, пожалуйста, зарегистрироруйтесь.

Дешевый и быстрый Сидбокс

Ключи и пин-коды

Игры, Кредитные карты, IP-телефония, Интернет провайдеры, Мобильная связь, Спутниковое ТВ

Электронные книги

Бизнес и экономика, Дом, быт, семья, досуг, Санкт-Петербург, Компьютеры и интернет, Наука и образование, Техническая литература, Юридическая литература

Цифровые товары

iTunes & App Store, Базы данных, Дизайн, Доступ к ресурсам, Kарты продления, ключи, Фотографии, Шаблоны для сайтов

Программное обеспечение

Безопасность, Игры, PC, Интернет, Мобильная связь, Программирование, Продвижение сайтов (SEO), Утилиты
У Вас отключен VIP статус, поэтому Вам показывается реклама на сайте. Вы можете поддержать наш ресурс и приобрести VIP статус, тем самым отключив показ рекламы на сайте, а ещё VIP пользователи получают возможность

смотреть аниме онлайн в HD качестве

(не распространяется на раздел Flarrow Films), а так же получить 5 инвайтов, которыми можно поделиться с друзьями или знакомыми.
Дешевый и быстрый Сидбокс

Ключи и пин-коды

Игры, Кредитные карты, IP-телефония, Интернет провайдеры, Мобильная связь, Спутниковое ТВ

Электронные книги

Бизнес и экономика, Дом, быт, семья, досуг, Санкт-Петербург, Компьютеры и интернет, Наука и образование, Техническая литература, Юридическая литература

Цифровые товары

iTunes & App Store, Базы данных, Дизайн, Доступ к ресурсам, Kарты продления, ключи, Фотографии, Шаблоны для сайтов

Программное обеспечение

Безопасность, Игры, PC, Интернет, Мобильная связь, Программирование, Продвижение сайтов (SEO), Утилиты
[Профиль] [ЛС]
Показать сообщения:    
Ответить на тему

Текущее время: 24-Окт 19:40

Часовой пояс: UTC + 4



Вы не можете начинать темы
Вы не можете отвечать на сообщения
Вы не можете редактировать свои сообщения
Вы не можете удалять свои сообщения
Вы не можете голосовать в опросах
Вы не можете прикреплять файлы к сообщениям
Вы можете скачивать файлы
Анализ сайта korsars.pro Яндекс.Метрика