Истории монстров / Bakemonogatari [S01 + Спешелы] (2009-2010) BDRip от Deadmauvlad | Shiza Project

Ответить на тему
Статистика раздачи [Обновить пиров]
Размер:  5,08 GB   |    Зарегистрирован:  1 год 7 месяцев   |    .torrent скачан:  10 раз
Раздают:  6  [  0 KB/s  ]   Качают:  3  [  0 KB/s  ]   Подробная статистика пиров
 
   
 
 
Автор Сообщение

deadmauvlad ®

Оффлайн

Медали
VIP


Пол: Мужской

Стаж: 1 год 8 месяцев

Наличие запрета:

Сообщений: 65

Откуда: Siberian Republic

Отдача: не определено

Загрузка: не определено

Нажми


Скачать Adguard бесплатно

Создавать темы 29-Апр-2020 11:32

[Цитировать]

Название: Истории монстров
Оригинальное название: Bakemonogatari
Год выхода: 2009-2010
Жанр: драма, комедия, мистика, романтика, школа
Режиссер: Симбо Акиюки
Автор оригинала: Нисио Исин
В главных ролях Хироси Камия, Эри Китамура, Юка Игути, Саито Тива, Юи Хориэ, Такахиро Сакурай, Эмири Като, Миюки Савасиро, Кана Ханадзава, Фумихико Татики
Краткое описание: Шел как-то выпускник Коёми Арараги в родной школе по лестнице, думал о своем, и тут, откуда ни возьмись, сверху на него падает красивая девушка. Так как полет ее был долгим, то Коёми успел узнать одноклассницу Хитаги Сэндзёгахара, по жизни нелюдимую и молчаливую. Подставив руки, парень напружинился, думая, что его впечатает в пол, но Хитаги оказалась не тяжелее… школьного учебника. И вскоре Коёми понял, что помалкивает Хитаги не из природной скромности, а потому, что характер больно крутой и резкий, а еще она очень быстро умеет доставать из воздуха колюще-режущие предметы из арсенала школьных канцтоваров. Но и наш герой оказался не лыком шит. Узнав, что над девушкой подшутил то ли бог, то ли демон, Арараги в свою очередь повинился, что недавно вампиром был, пошаливал, да выручил то ли святой человек, то ли старый хиппи, а звать его Мэмэ Осино. Короче, убедил он девушку, что хуже не будет, а помочь ей могут, и повел ее к отшельнику в гости, на заброшенную стройку. Ведь у героев работа такая – девушкам в беде помогать! А их, девушек, в школе так много…
-Перевод: Любительский двухголосый закадровый - Shiza Project
Роли Озвучили: NIKITOS & Viki
Перевод: Субтитры
Студия:Shaft
Страна: Япония/Japan
Продолжительность: 15 серий x 00:26:00 [TV + Спешелы]
Возрастное ограничение: 16+
Качество: BDRip [**Исходник BDRemux 1080p thx Мракуня]
Контейнер: AVI
Кодек: XviD
Видео: 720x400 (16:9), 23.976 fps, 1 528 kb/s (0.221 bit/pixel)
Аудио №1: AC-3, 48,0 КГц, 2 ch, 192 /сек, CBR | | Shiza Project
Аудио №2: AC-3, 48,0 КГц, 2 ch, 192 /сек, CBR | | Japan (Оригинал)
Субтитры: Русские Есть в раздаче (Полный Перевод); English (Full)-

Хронология во временной последовательности

• Истории ран: „I Железная кровь“ → „II Горячая кровь“ → „III Холодная кровь“
• Истории Коёми — эпизод 1
• История кошки: Черная глава
• Истории монстров — эпизоды 1-2
• Истории Коёми — эпизод 2
• Истории монстров — эпизоды 3-12 +3sp
• Истории Коёми — эпизод 3-4
• Истории подделок — эпизоды 1-7
• Истории Коёми — эпизод 5
• Истории подделок — эпизоды 8-11
• Цикл историй: Второй сезон — [эпизоды 6-9 → 14-17 → 1-5]
• История финала — эпизоды 7-12
• Истории Коёми — эпизод 6-7
• История финала — эпизод 1-6
• Истории Коёми — эпизод 8
• Цикл историй: Второй сезон — эпизоды 10-13
• Истории Коёми — эпизод 9
• Цикл историй: Второй сезон — эпизоды 18-23
• Истории Коёми — эпизод 10
• История одержимости
• Истории Коёми — эпизод 11-12
• История финала 2 — эпизоды 1-7
• История финала: Продолжение
• История цветов

Эпизоды

01 Hitagi Crab, Part 1
02 Hitagi Crab, Part 2
03 Mayoi Snail, Part 1
04 Mayoi Snail, Part 2
05 Mayoi Snail, Part 3
06 Suruga Monkey, Part 1
07 Suruga Monkey, Part 2
08 Suruga Monkey, Part 3
09 Nadeko Snake, Part 1
10 Nadeko Snake, Part 2
11 Tsubasa Cat, Part 1
12 Tsubasa Cat, Part 2
S1 Tsubasa Cat, Part 3
S2 Tsubasa Cat, Part 4
S3 Tsubasa Cat, Part 5

MediaInfo

Общее
Полное имя : [Deadmau- RAWS] Истории.монстров.2009.S01.RUS.JAP.BDRip.Deadmauvlad.Серия.01.avi
Формат : AVI
Формат/Информация : Audio Video Interleave
Размер файла : 357 Мбайт
Продолжительность : 25 м. 57 с.
Общий поток : 1926 Кбит/сек
Название фильма : [Deadmau- RAWS] Истории.монстров.2009.S01.RUS.JAP.BDRip.Deadmauvlad.Серия.01
Режиссёр : Encoder by Deadmauvlad
Жанр : мистика, романтика, школа
Программа кодирования : VirtualDubMod 1.5.10.3 | www.virtualdub-fr.org || (build 2550/release)
Формат оригинала/Имя : Аниме
Авторское право : Encoder by Deadmauvlad
Примечание : Encoder by Deadmauvlad
Видео
Идентификатор : 0
Формат : MPEG-4 Visual
Профиль формата : Advanced Simple@L5
Настройки формата : BVOP1 / Custom Matrix
Параметр BVOP формата : 1
Параметр QPel формата : Нет
Параметр GMC формата : Без точки перехода
Параметр матрицы формата : Выборочная
Идентификатор кодека : XVID
Идентификатор кодека/Подсказка : XviD
Продолжительность : 25 м. 57 с.
Битрейт : 1528 Кбит/сек
Ширина : 720 пикселей
Высота : 400 пикселей
Соотношение сторон : 16:9
Частота кадров : 23,976 (24000/1001) кадра/сек
Цветовое пространство : YUV
Субдискретизация насыщенности : 4:2:0
Битовая глубина : 8 бит
Тип развёртки : Прогрессивная
Метод сжатия : С потерями
Бит/(Пиксели*Кадры) : 0.221
Размер потока : 284 Мбайт (79%)
Библиотека кодирования : XviD 73
Аудио #1
Идентификатор : 1
Формат : AC-3
Формат/Информация : Audio Coding 3
Коммерческое название : Dolby Digital
Идентификатор кодека : 2000
Продолжительность : 25 м. 56 с.
Вид битрейта : Постоянный
Битрейт : 192 Кбит/сек
Каналы : 2 канала
ChannelLayout : L R
Частота : 48,0 КГц
Частота кадров : 31,250 кадров/сек (1536 SPF)
Метод сжатия : С потерями
Размер потока : 35,6 Мбайт (10%)
Выравнивание : Разделение по промежуткам
Продолжительность промежутка : 42 мс. (1,00 видеокадр)
Время предзагрузки промежутка : 500 мс.
Аудио #2
Идентификатор : 2
Формат : AC-3
Формат/Информация : Audio Coding 3
Коммерческое название : Dolby Digital
Идентификатор кодека : 2000
Продолжительность : 25 м. 57 с.
Вид битрейта : Постоянный
Битрейт : 192 Кбит/сек
Каналы : 2 канала
ChannelLayout : L R
Частота : 48,0 КГц
Частота кадров : 31,250 кадров/сек (1536 SPF)
Метод сжатия : С потерями
Размер потока : 35,6 Мбайт (10%)
Выравнивание : Разделение по промежуткам
Продолжительность промежутка : 42 мс. (1,00 видеокадр)
Время предзагрузки промежутка : 500 мс.

Бонусы:

Опенинг Эндинг аудио на японском [Без титров]

Скриншоты

Релиз / Автор рипа: Deadmauvlad ^_^
[korsars.pro].t28343.torrent 
Торрент: Зарегистрирован [ 2020-04-29 11:32 ] · 21DBCA0B554CAC43636715CE0FDD4EF353F6820D

Скачать .torrent

Размер .torrent файла 15 KB

Статус: проверено
.torrent скачан: 10 раз
Размер: 5,08 GB
Правила
4udaki(30-Апр-20), CHIIZ(07-Фев-21)
Похожие темы

Вы не зарегистрированы на нашем сайте. Вам доступна для скачивания только часть контента. Чтобы увидеть весь контент сайта, пожалуйста, зарегистрироруйтесь.

Дешевый и быстрый Сидбокс

Ключи и пин-коды

Игры, Кредитные карты, IP-телефония, Интернет провайдеры, Мобильная связь, Спутниковое ТВ

Электронные книги

Бизнес и экономика, Дом, быт, семья, досуг, Санкт-Петербург, Компьютеры и интернет, Наука и образование, Техническая литература, Юридическая литература

Цифровые товары

iTunes & App Store, Базы данных, Дизайн, Доступ к ресурсам, Kарты продления, ключи, Фотографии, Шаблоны для сайтов

Программное обеспечение

Безопасность, Игры, PC, Интернет, Мобильная связь, Программирование, Продвижение сайтов (SEO), Утилиты
У Вас отключен VIP статус, поэтому Вам показывается реклама на сайте. Вы можете поддержать наш ресурс и приобрести VIP статус, тем самым отключив показ рекламы на сайте, а ещё VIP пользователи получают возможность

смотреть аниме онлайн в HD качестве

(не распространяется на раздел Flarrow Films), а так же получить 5 инвайтов, которыми можно поделиться с друзьями или знакомыми.
Дешевый и быстрый Сидбокс

Ключи и пин-коды

Игры, Кредитные карты, IP-телефония, Интернет провайдеры, Мобильная связь, Спутниковое ТВ

Электронные книги

Бизнес и экономика, Дом, быт, семья, досуг, Санкт-Петербург, Компьютеры и интернет, Наука и образование, Техническая литература, Юридическая литература

Цифровые товары

iTunes & App Store, Базы данных, Дизайн, Доступ к ресурсам, Kарты продления, ключи, Фотографии, Шаблоны для сайтов

Программное обеспечение

Безопасность, Игры, PC, Интернет, Мобильная связь, Программирование, Продвижение сайтов (SEO), Утилиты
[Профиль] [ЛС]
Показать сообщения:    
Ответить на тему

Текущее время: 06-Дек 22:05

Часовой пояс: UTC + 4



Вы не можете начинать темы
Вы не можете отвечать на сообщения
Вы не можете редактировать свои сообщения
Вы не можете удалять свои сообщения
Вы не можете голосовать в опросах
Вы не можете прикреплять файлы к сообщениям
Вы можете скачивать файлы
Анализ сайта korsars.pro Яндекс.Метрика