Новые Мстители: Герои завтрашнего дня / Next Avengers: Heroes of Tomorrow (2008) BDRip 1080p от KORSARS.INFO | Flarrow Films

Ответить на тему
Статистика раздачи [Обновить пиров]
Размер:  5,64 GB   |    Зарегистрирован:  10 месяцев 21 день   |    .torrent скачан:  7 раз
Раздают:  8  [  0 KB/s  ]   Подробная статистика пиров
 
   
 
 
Автор Сообщение

4udaki ®

Оффлайн

Медали


Пол: Мужской

Стаж: 6 лет 4 месяца

Наличие запрета:

Сообщений: 9100

Откуда: korsars.pro

Отдача: 2 Mb/s

Загрузка: 20 Mb/s

Нажми


Скачать Adguard бесплатно

Создавать темы 16-Апр-2020 14:31

[Цитировать]

-Новые Мстители: Герои завтрашнего дня / Next Avengers: Heroes of Tomorrow-Год выпуска: 2008
Страна:
США
Жанр: мультфильм, фантастика, боевик, семейный
Продолжительность: 01:18:03
Перевод: Профессиональный (многоголосый, закадровый) | Flarrow Films
Субтитры: отсутствуют-В ролях: Ной Кроуфорд, Бренна О’Брайэн, Эйдан Драммонд, Демпси Паппион, Адриан Петрив, Том Кэйн, Фред Таташиор, Шон МакДональд, Майкл Адамуэйт, Кен Крамер
Режиссёры: Джей Олива, Гари Хартл-Рейтинг:
-Описание: Всякий раз, когда силы зла угрожали человечеству, самые могущественные герои Земли «Мстители» останавливали их. Пришло время молодого поколения. Теперь новые герои будут вершить правосудие и они должны закончить борьбу, которую начали их родители.-Качество: BDRip 1080p
Формат: MKV (MPEG-4 AVC)
Видео: 1920х1080, 10.0 Mb/s, 23.976, 8 bits
Аудио: AC-3, 320 Кбит/с, 48.0 kHz
Сохранены главы, как на оригинальном BLURAY!-

MediaInfo

General
Unique ID : 166571339693941336944706828010093589837 (0x7D50791D0994D935CCDD9DBB92ACB54D)
Complete name : [KORSARS]_Next.Avengers.Heroes.of.Tomorrow.2008..BDRi.1080p.Flarrow.Films.mkv
Format : Matroska
Format version : Version 4
File size : 5.64 GiB
Duration : 1 h 18 min
Overall bit rate : 10.3 Mb/s
Encoded date : UTC 2020-04-15 16:14:15
Writing application : HandBrake 1.3.1 2020010400
Writing library : Lavf58.29.100
ErrorDetectionType : Per level 1
Video
ID : 1
Format : AVC
Format/Info : Advanced Video Codec
Format profile : Main@L4
Format settings : CABAC / 4 Ref Frames
Format settings, CABAC : Yes
Format settings, Reference : 4 frames
Codec ID : V_MPEG4/ISO/AVC
Duration : 1 h 18 min
Bit rate : 10.0 Mb/s
Width : 1 920 pixels
Height : 1 080 pixels
Display aspect ratio : 16:9
Frame rate mode : Constant
Frame rate : 23.976 (24000/1001) FPS
Color space : YUV
Chroma subsampling : 4:2:0
Bit depth : 8 bits
Scan type : Progressive
Bits/(Pixel*Frame) : 0.202
Stream size : 5.35 GiB (95%)
Writing library : x264 core 157 r2935 545de2f
Encoding settings : cabac=1 / ref=3 / deblock=1:0:0 / analyse=0x1:0x111 / me=hex / subme=7 / psy=1 / psy_rd=1.00:0.00 / mixed_ref=1 / me_range=16 / chroma_me=1 / trellis=1 / 8x8dct=0 / cqm=0 / deadzone=21,11 / fast_pskip=1 / chroma_qp_offset=-2 / threads=9 / lookahead_threads=1 / sliced_threads=0 / nr=0 / decimate=1 / interlaced=0 / bluray_compat=0 / constrained_intra=0 / bframes=3 / b_pyramid=2 / b_adapt=1 / b_bias=0 / direct=1 / weightb=1 / open_gop=0 / weightp=2 / keyint=240 / keyint_min=24 / scenecut=40 / intra_refresh=0 / rc_lookahead=40 / rc=2pass / mbtree=1 / bitrate=10024 / ratetol=1.0 / qcomp=0.60 / qpmin=0 / qpmax=69 / qpstep=4 / cplxblur=20.0 / qblur=0.5 / vbv_maxrate=20000 / vbv_bufsize=25000 / nal_hrd=none / filler=0 / ip_ratio=1.40 / aq=1:1.00
Default : Yes
Forced : No
Color range : Limited
Color primaries : BT.709
Transfer characteristics : BT.709
Matrix coefficients : BT.709
Audio
ID : 2
Format : AC-3
Format/Info : Audio Coding 3
Commercial name : Dolby Digital
Codec ID : A_AC3
Duration : 1 h 18 min
Bit rate mode : Constant
Bit rate : 320 kb/s
Channel(s) : 2 channels
Channel layout : L R
Sampling rate : 48.0 kHz
Frame rate : 31.250 FPS (1536 SPF)
Compression mode : Lossy
Delay relative to video : -5 ms
Stream size : 179 MiB (3%)
Title : Stereo
Service kind : Complete Main
Default : Yes
Forced : No
Menu
00:00:00.000 : :Глава 01
00:06:04.906 : :Глава 02
00:09:26.191 : :Глава 03
00:12:53.564 : :Глава 04
00:16:27.528 : :Глава 05
00:19:39.720 : :Глава 06
00:23:48.052 : :Глава 07
00:27:08.460 : :Глава 08
00:30:04.720 : :Глава 09
00:33:28.340 : :Глава 10
00:38:12.415 : :Глава 11
00:43:11.089 : :Глава 12
00:46:13.104 : :Глава 13
00:50:22.019 : :Глава 14
00:56:34.349 : :Глава 15
01:03:27.554 : :Глава 16
-

Скриншоты

-Релиз без рекламы!
Спасибо Flarrow Films за предоставленную звуковую дорожку!

[korsars.pro].t28014.torrent 
Торрент: Зарегистрирован [ 2020-04-16 14:31 ] · 3D06C463900C0D350F9DFC4F9D892EF0E903C6CC

Скачать .torrent

Размер .torrent файла 15 KB

Статус: проверено
.torrent скачан: 7 раз
Размер: 5,64 GB
Правила
Похожие темы

Вы не зарегистрированы на нашем сайте. Вам доступна для скачивания только часть контента. Чтобы увидеть весь контент сайта, пожалуйста, зарегистрироруйтесь.

У Вас отключен VIP статус, поэтому Вам показывается реклама на сайте. Вы можете поддержать наш ресурс и приобрести VIP статус, тем самым отключив показ рекламы на сайте, а ещё VIP пользователи получают возможность

смотреть фильмы, сериалы и аниме онлайн в HD качестве

(не распространяется на раздел Flarrow Films), а так же получить 5 инвайтов, которыми можно поделиться с друзьями или знакомыми.
[Профиль] [ЛС]
Показать сообщения:    
Ответить на тему

Текущее время: 07-Мар 18:52

Часовой пояс: UTC + 4



Вы не можете начинать темы
Вы не можете отвечать на сообщения
Вы не можете редактировать свои сообщения
Вы не можете удалять свои сообщения
Вы не можете голосовать в опросах
Вы не можете прикреплять файлы к сообщениям
Вы можете скачивать файлы
Анализ сайта korsars.pro Яндекс.Метрика