Харли Квинн / Harley Quinn [S02] (2019) WEBRip 1080p | Flarrow Films

Ответить на тему
Статистика раздачи [Обновить пиров]
Размер:  11,04 GB   |    Зарегистрирован:  8 месяцев 4 дня   |    .torrent скачан:  5 раз
Раздают:  18  [  0 KB/s  ]   Качают:  15  [  0 KB/s  ]   Подробная статистика пиров
 
   
 
 
Автор Сообщение

flarrowfilms ®

Оффлайн

Медали
VIPДруг трекераСупер Мега Контер Квейк


Пол: Не указан

Стаж: 11 месяцев 9 дней

Наличие запрета:

Сообщений: 71

Отдача: 5 Mb/s

Загрузка: 5 Mb/s

Нажми


Скачать Adguard бесплатно

Создавать темы 05-Апр-2020 22:25

[Цитировать]

Информация о фильме
Название: Харли Квинн
Оригинальное название: Harley Quinn
Год выхода: 2019
Жанр: мультфильм, фэнтези, боевик, комедия, криминал, детектив, приключения
Режиссеры: Сесилия Аранович, Хуан Хосе Меса-Леон, Бен Джонс
В ролях: Кейли Куоко, Лэйк Белл, Алан Тьюдик, Дидрих Бадер, Джим Рэш, Кристофер Мелони, Дж.Б. Смув, Рон Фанчес, Тони Хейл, Джейсон Александер
О фильме:
Харли Квинн разорвала отношения с Джокером и теперь пытается самостоятельно стать королевой преступного мира Готэма.

Страна: США
Продолжительность: ~ 00:23:05 (серия)
Перевод: Профессиональный (многоголосый, закадровый) | Flarrow Films
Файл
Формат: MKV
Кодек: MPEG-4 AVC
Качество: WEBRip 1080p
Видео: 1920x1080, ~ 4 985 kb/s, 23.976 FPS, 8 bits
Звук: AC-3, ~ 320 kb/s, 48.0 kHz
Субтитры: отсутствуют-

MediaInfo

General
Unique ID : 156941100494878279533238790684441486405 (0x7611C1A9A4F3B0A5B110EF16C362A445)
Complete name : C:FlarrowHarley.Quinn.S02.1080p.Flarrow.FilmsHarley.Quinn.S02E01.mkv
Format : Matroska
Format version : Version 4
File size : 870 MiB
Duration : 22 min 56 s
Overall bit rate : 5 303 kb/s
Encoded date : UTC 2020-04-05 17:15:03
Writing application : mkvmerge v32.0.0 ('Astral Progressions') 64-bit
Writing library : libebml v1.3.7 + libmatroska v1.5.0
Video
ID : 1
Format : AVC
Format/Info : Advanced Video Codec
Format profile : Baseline@L4
Format settings : 3 Ref Frames
Format settings, CABAC : No
Format settings, Reference : 3 frames
Format settings, GOP : M=1, N=48
Codec ID : V_MPEG4/ISO/AVC
Duration : 22 min 55 s
Bit rate : 4 985 kb/s
Width : 1 920 pixels
Height : 1 080 pixels
Display aspect ratio : 16:9
Frame rate mode : Constant
Frame rate : 23.976 (24000/1001) FPS
Color space : YUV
Chroma subsampling : 4:2:0
Bit depth : 8 bits
Scan type : Progressive
Bits/(Pixel*Frame) : 0.100
Stream size : 817 MiB (94%)
Writing library : Zencoder Video Encoding System
Default : Yes
Forced : No
Color range : Limited
Color primaries : BT.709
Transfer characteristics : BT.709
Matrix coefficients : BT.709
Audio
ID : 2
Format : AC-3
Format/Info : Audio Coding 3
Commercial name : Dolby Digital
Codec ID : A_AC3
Duration : 22 min 56 s
Bit rate mode : Constant
Bit rate : 320 kb/s
Channel(s) : 2 channels
Channel layout : L R
Sampling rate : 48.0 kHz
Frame rate : 31.250 FPS (1536 SPF)
Compression mode : Lossy
Stream size : 52.5 MiB (6%)
Service kind : Complete Main
Default : Yes
Forced : No
-

Скриншоты

-Релиз от: Flarrow Films
Примечание: Без интро Flarrow Films- - -28.06.2020 обновлено. Добавлена 13-я серия

[korsars.pro].t27729.torrent 
Торрент: Зарегистрирован [ 2020-06-28 09:54 ] · 49908D3AF940D5E7B1D551CC746761CF5A3A267F

Скачать .torrent

Размер .torrent файла 28 KB

Статус: проверено
.torrent скачан: 5 раз
Размер: 11,04 GB
Правила
Похожие темы

Вы не зарегистрированы на нашем сайте. Вам доступна для скачивания только часть контента. Чтобы увидеть весь контент сайта, пожалуйста, зарегистрироруйтесь.

У Вас отключен VIP статус, поэтому Вам показывается реклама на сайте. Вы можете поддержать наш ресурс и приобрести VIP статус, тем самым отключив показ рекламы на сайте, а ещё VIP пользователи получают возможность

смотреть фильмы, сериалы и аниме онлайн в HD качестве

(не распространяется на раздел Flarrow Films), а так же получить 5 инвайтов, которыми можно поделиться с друзьями или знакомыми.


Последний раз редактировалось: flarrowfilms (2020-06-28 09:54), всего редактировалось 8 раз(а)
[Профиль] [ЛС]

Создавать темы 04-Май-2020 18:09 (спустя 28 дней)

Топик был перенесен из форума Мультфильмы в форум Для удаленных раздач
Причина переноса: Поглощено в пользу: http://korsars.pro/viewtopic.php?t=28483
4udaki
 

Создавать темы 11-Май-2020 11:39 (спустя 1 месяц 5 дней)

Топик был перенесен из форума Для удаленных раздач в форум Мультфильмы
Причина переноса: Восстановлена
4udaki
 
Показать сообщения:    
Ответить на тему

Текущее время: 03-Мар 00:20

Часовой пояс: UTC + 4



Вы не можете начинать темы
Вы не можете отвечать на сообщения
Вы не можете редактировать свои сообщения
Вы не можете удалять свои сообщения
Вы не можете голосовать в опросах
Вы не можете прикреплять файлы к сообщениям
Вы можете скачивать файлы
Анализ сайта korsars.pro Яндекс.Метрика