Моя девушка и подруга детства часто ссорятся / Ore no kanojo to osananajimi ga shuraba sugiru [S01] (2013) BDRip от Deadmauvlad | L | AniDub

Ответить на тему
Статистика раздачи [Обновить пиров]
Размер:  4,16 GB   |    Зарегистрирован:  1 год 7 месяцев   |    .torrent скачан:  3 раза
Раздают:  15  [  0 KB/s  ]   Качают:  3  [  0 KB/s  ]   Подробная статистика пиров
 
   
 
 
Автор Сообщение

4udaki ®

Онлайн

Медали


Пол: Мужской

Стаж: 6 лет 11 месяцев

Наличие запрета:

Сообщений: 11587

Откуда: korsars.pro

Отдача: 2 Mb/s

Загрузка: 20 Mb/s

Нажми


Скачать Adguard бесплатно

Создавать темы 12-Мар-2020 01:00

[Цитировать]

Информация о фильме
Название: Моя девушка и подруга детства часто ссорятся (Между двух огней: Девушка или подруга детства?)
Оригинальное название: Ore no kanojo to osananajimi ga shuraba sugiru (OreShura)
Оригинальное название (Японское) 俺修羅
Год выхода: 2013
Выпуск: с 6 января 2013 по 31 марта 2013
Жанр: гарем, комедия, романтика
Трансляция: воскресенье в 00:00 [ночной сеанс] на Tokyo MX TV
Автор оригинала: Юдзи Юдзи
Режиссер: Камэй Канта
В главных ролях: Акасаки Тинацу, Хисако Канэмото, Аи Каяно, Юкари Тамура, Рёта Осака
Описание: После развода родителей 15-летнего Эйту Кидо отправили на попечение дальней родственницы. Эйта - парень серьезный, а сиротство при живых родителях окончательно развеяло иллюзии насчет любви и всяческой романтики. Вместо этого в старшей школе парень вгрызся в гранит науки, надеясь заработать стипендию и поступить на медицинский факультет, чтобы отплатить тетушке Саэко за доброту. Была и другая причина – старую знакомую по имени Тива Харусаки год назад сбила машина, и хотя девушка не сломалась и сохранила прямой и веселый характер, но спорт ей пришлось бросить. Мечтая исцелить подругу детства, Кидо еще глубже погрузился в учебники, твердо решив отринуть любые искушения на пути к цели.
Тут бедняга и попался – на него положила глаз Масудзу Нацукава, сребровласая королева школы. Желая прекратить поток надоевших признаний, Масудзу поступила мудро: выбирая подставным парнем первого ученика, она сохраняет лицо, а личных проблем от «ботаника» ждать не придется. Мнение партнера красавицу не волновало (на то есть свои методы), но гордячка ошибалась в другом – ее выбор резко повысил акции Эйты среди местного женского населения. Первой, конечно же, высказалась подруга детства, а что потом – знает каждый истинный любитель аниме. Ну а дальше не то что на медицинский – на театральный пора собираться!-
Продолжительность: 13 Серий x ~00:24:00
Производство: Япония
Студия: A-1 Pictures
Перевод: Любительский (Многоголосый Закадровый) [AniDub] Tinko, Shina, Wolfys
Возрастное ограничение: 16+
Файл
Кодек: XViD
Качество: BDRip [Исходник: Blu-Ray Disk's *]
Формат видео: XViD / AVI
Видео: 720x400 (16:9), 23.976 fps, 1 561 kb/s (0.226 bit/pixel)
Аудио №1: AC3, 48.0 kHz, 2 ch, 192 kb/s, CBR | | AniDub
Аудио №2: AC3, 48.0 kHz, 2 ch, 192 kb/s, CBR | | Japan (Оригинал)
Субтитры: Русские-

MediaInfo

General
Complete name : [Deadmau- RAWS] Oreshura.2013.S01.Rus.Jap.BDRip.Deadmauvlad.Ep.01.avi
Format : AVI
Format/Info : Audio Video Interleave
File size : 334 MiB
Duration : 23 min 48 s
Overall bit rate : 1 960 kb/s
Movie name : [Deadmau- RAWS] Между.двух.огней.Девушка.или.подруга.детства.2013.S01.Rus.Jap.BDRip.Deadmauvlad.Серия.01
Director : Encoder by Deadmauvlad
Genre : гарем, комедия, романтика
Writing application : VirtualDubMod 1.5.10.3 | www.virtualdub-fr.org || (build 2550/release)
Original source form/Name : Аниме
Copyright : Encoder by Deadmauvlad
Comment : Encoder by Deadmauvlad
Video
ID : 0
Format : MPEG-4 Visual
Format profile : Advanced Simple@L5
Format settings : BVOP1 / Custom Matrix
Format settings, BVOP : 1
Format settings, QPel : No
Format settings, GMC : No warppoints
Format settings, Matrix : Custom
Codec ID : XVID
Codec ID/Hint : XviD
Duration : 23 min 48 s
Bit rate : 1 561 kb/s
Width : 720 pixels
Height : 400 pixels
Display aspect ratio : 16:9
Frame rate : 23.976 (24000/1001) FPS
Color space : YUV
Chroma subsampling : 4:2:0
Bit depth : 8 bits
Scan type : Progressive
Compression mode : Lossy
Bits/(Pixel*Frame) : 0.226
Stream size : 266 MiB (80%)
Writing library : XviD 73
Audio #1
ID : 1
Format : AC-3
Format/Info : Audio Coding 3
Commercial name : Dolby Digital
Codec ID : 2000
Duration : 23 min 48 s
Bit rate mode : Constant
Bit rate : 192 kb/s
Channel(s) : 2 channels
Channel layout : L R
Sampling rate : 48.0 kHz
Frame rate : 31.250 FPS (1536 SPF)
Bit depth : 16 bits
Compression mode : Lossy
Stream size : 32.7 MiB (10%)
Alignment : Split accross interleaves
Interleave, duration : 42 ms (1.00 video frame)
Interleave, preload duration : 500 ms
Audio #2
ID : 2
Format : AC-3
Format/Info : Audio Coding 3
Commercial name : Dolby Digital
Codec ID : 2000
Duration : 23 min 48 s
Bit rate mode : Constant
Bit rate : 192 kb/s
Channel(s) : 2 channels
Channel layout : L R
Sampling rate : 48.0 kHz
Frame rate : 31.250 FPS (1536 SPF)
Bit depth : 16 bits
Compression mode : Lossy
Stream size : 32.7 MiB (10%)
Alignment : Split accross interleaves
Interleave, duration : 42 ms (1.00 video frame)
Interleave, preload duration : 500 ms
-

Эпизоды:

1 серия — Начало моей Жизни в Старшей Школе как Поле Битвы
2 серия — Основание Нового Клуба на Поле Боя
3 серия — Поле Битвы и Слёзы Подруги Детства
4 серия — Борьба за парня на Поле Битвы
5 серия — Правда Любовного Послания на Поле Битвы
6 серия — Поле Битвы где Серый Мир Растерзан в Клочья
7 серия — Летняя школа превращается в Поле Битвы
8 серия — Двойное свидание в кинотеатре - Поле Битвы
9 серия — Обещание возвращается на Поле Битвы
10 серия — Схватка в Летнем Лагере
11 серия — Битва в ночь перед Поездкой
12 серия — Исход сражений на Поле Битвы
13 серия — Поле Битвы приносит новый мир
-

Скриншоты

*[BDMV] Ore no Kanojo to Osananajimi ga Shuraba Sugiru (Oreshura) [Vol.1~7Fin][JP]
Релиз / Автор рипа: Deadmauvlad ^_^
[korsars.pro].t27016.torrent 
Торрент: Зарегистрирован [ 2020-03-12 01:00 ] · 48A81491D1B6D11C6FB43438101A6BB9F76E1EE1

Скачать .torrent

Размер .torrent файла 15 KB

Статус: проверено
.torrent скачан: 3 раз
Размер: 4,16 GB
Правила
Похожие темы

Вы не зарегистрированы на нашем сайте. Вам доступна для скачивания только часть контента. Чтобы увидеть весь контент сайта, пожалуйста, зарегистрироруйтесь.

Дешевый и быстрый Сидбокс

Ключи и пин-коды

Игры, Кредитные карты, IP-телефония, Интернет провайдеры, Мобильная связь, Спутниковое ТВ

Электронные книги

Бизнес и экономика, Дом, быт, семья, досуг, Санкт-Петербург, Компьютеры и интернет, Наука и образование, Техническая литература, Юридическая литература

Цифровые товары

iTunes & App Store, Базы данных, Дизайн, Доступ к ресурсам, Kарты продления, ключи, Фотографии, Шаблоны для сайтов

Программное обеспечение

Безопасность, Игры, PC, Интернет, Мобильная связь, Программирование, Продвижение сайтов (SEO), Утилиты
У Вас отключен VIP статус, поэтому Вам показывается реклама на сайте. Вы можете поддержать наш ресурс и приобрести VIP статус, тем самым отключив показ рекламы на сайте, а ещё VIP пользователи получают возможность

смотреть аниме онлайн в HD качестве

(не распространяется на раздел Flarrow Films), а так же получить 5 инвайтов, которыми можно поделиться с друзьями или знакомыми.
Дешевый и быстрый Сидбокс

Ключи и пин-коды

Игры, Кредитные карты, IP-телефония, Интернет провайдеры, Мобильная связь, Спутниковое ТВ

Электронные книги

Бизнес и экономика, Дом, быт, семья, досуг, Санкт-Петербург, Компьютеры и интернет, Наука и образование, Техническая литература, Юридическая литература

Цифровые товары

iTunes & App Store, Базы данных, Дизайн, Доступ к ресурсам, Kарты продления, ключи, Фотографии, Шаблоны для сайтов

Программное обеспечение

Безопасность, Игры, PC, Интернет, Мобильная связь, Программирование, Продвижение сайтов (SEO), Утилиты
[Профиль] [ЛС]
Показать сообщения:    
Ответить на тему

Текущее время: 28-Окт 02:01

Часовой пояс: UTC + 4



Вы не можете начинать темы
Вы не можете отвечать на сообщения
Вы не можете редактировать свои сообщения
Вы не можете удалять свои сообщения
Вы не можете голосовать в опросах
Вы не можете прикреплять файлы к сообщениям
Вы можете скачивать файлы
Анализ сайта korsars.pro Яндекс.Метрика