Акира / Akira (1988) BDRip | D | ОРТ

Ответить на тему
Статистика раздачи [Обновить пиров]
Размер:  1,46 GB   |    Зарегистрирован:  1 год 7 месяцев   |    .torrent скачан:  1 раз
Раздают:  48  [  0 KB/s  ]   Качают:  7  [  0 KB/s  ]   Подробная статистика пиров
 
   
 
 
Автор Сообщение

4udaki ®

Оффлайн

Медали


Пол: Мужской

Стаж: 6 лет 11 месяцев

Наличие запрета:

Сообщений: 11563

Откуда: korsars.pro

Отдача: 2 Mb/s

Загрузка: 20 Mb/s

Нажми


Скачать Adguard бесплатно

Создавать темы 08-Мар-2020 01:00

[Цитировать]

Информация о фильме
Название: Акира
Оригинальное название: Akira
Год выхода: 1988
Жанр: Аниме, Мультфильм, Фантастика, Боевик, Триллер, Детектив
Режиссер: Кацухиро Отомо
В ролях: Мицуо Ивата, Нозому Сасаки, Мами Кояма, Тэссё Гэнда, Хироси Отакэ, Койти Китамура, Michihiro Ikemizu, Юрико Футидзаки, Masaaki Фkura, Таро Аракава
О фильме:
Спустя 31 год после Третьей мировой войны и ядерной бомбардировки столицы Японии, воссоздан новый город - Нью Токио.
Внешне все под контролем, однако, организация страны теперь напоминает профашистское государство, жесточайшим образом подавляющая попытки мятежа. В исследовательских центрах проводятся парапсихологические опыты над людьми для разработки совершенного вида оружия.
Военные, в лице полковника Сикисима, руководителя проекта биологических военных экспериментов, входят в конфликт с политическим крылом правительства. А в стране возникает религиозный культ сверхчеловека по имени Акира, приход которого, якобы, может решить все проблемы Японии.

Страна: Япония
Продолжительность: 02:04:28
Перевод: Профессиональный (Дублированный т/к ОРТ / Первый Канал)
Качество: BDRip [исходник:Akira.1988 Blu-ray REMUX.H264.1080P.DD51.TRUE-HD]
Контейнер / Кодек: AVI / XviD
Видео: 720x384 (1,85:1), 23.976 fps, 1473 Кбит/сек (0.222 bit/pixel)
Аудио: AC3, 1 ch, 192 Кбит/с
Субтитры: нет-

MediaInfo

Общее
Полное имя : [Deadmau-RAWS] Akira.1988.RUS.DUB.BDRip.1.46.GB.avi
Формат : AVI
Формат/Информация : Audio Video Interleave
Размер файла : 1,46 Гбайт
Продолжительность : 2 ч. 4 м.
Общий поток : 1674 Кбит/сек
Название фильма : [Deadmau-RAWS] Akira.1988.RUS.DUB.BDRip.1.46.GB
Режиссёр : Encoder by Deadmauvlad
Жанр : Боевик, Триллер, Детектив
Программа кодирования : VirtualDubMod 1.5.10.3 | www.virtualdub-fr.org || (build 2550/release)
Формат оригинала/Имя : Аниме
Авторское право : Encoder by Deadmauvlad
Примечание : Encoder by Deadmauvlad
Видео
Идентификатор : 0
Формат : MPEG-4 Visual
Профиль формата : Advanced Simple@L5
Настройки формата : BVOP1 / Custom Matrix
Параметр BVOP формата : 1
Параметр QPel формата : Нет
Параметр GMC формата : Без точки перехода
Параметр матрицы формата : Выборочная
Идентификатор кодека : XVID
Идентификатор кодека/Подсказка : XviD
Продолжительность : 2 ч. 4 м.
Битрейт : 1473 Кбит/сек
Ширина : 720 пикселей
Высота : 384 пикселя
Соотношение сторон : 1,85:1
Частота кадров : 23,976 (24000/1001) кадра/сек
Цветовое пространство : YUV
Субдискретизация насыщенности : 4:2:0
Битовая глубина : 8 бит
Тип развёртки : Прогрессивная
Метод сжатия : С потерями
Бит/(Пиксели*Кадры) : 0.222
Размер потока : 1,28 Гбайт (88%)
Библиотека кодирования : XviD 73
Аудио
Идентификатор : 1
Формат : AC-3
Формат/Информация : Audio Coding 3
Коммерческое название : Dolby Digital
Идентификатор кодека : 2000
Продолжительность : 2 ч. 4 м.
Вид битрейта : Постоянный
Битрейт : 192 Кбит/сек
Каналы : 1 канал
Channel layout : C
Частота : 48,0 КГц
Частота кадров : 31,250 кадров/сек (1536 SPF)
Битовая глубина : 16 бит
Метод сжатия : С потерями
Размер потока : 171 Мбайт (11%)
Выравнивание : Разделение по промежуткам
Продолжительность промежутка : 42 мс. (1,00 видеокадр)
Время предзагрузки промежутка : 500 мс.
Заголовок : RUS DUB
-

Скриншоты

[korsars.pro].t26916.torrent 
Торрент: Зарегистрирован [ 2020-03-08 01:00 ] · 84E9026B310585DF757373B0725283A188DEF4D7

Скачать .torrent

Размер .torrent файла 30 KB

Статус: проверено
.torrent скачан: 1 раз
Размер: 1,46 GB
Правила
Похожие темы

Вы не зарегистрированы на нашем сайте. Вам доступна для скачивания только часть контента. Чтобы увидеть весь контент сайта, пожалуйста, зарегистрироруйтесь.

Дешевый и быстрый Сидбокс

Ключи и пин-коды

Игры, Кредитные карты, IP-телефония, Интернет провайдеры, Мобильная связь, Спутниковое ТВ

Электронные книги

Бизнес и экономика, Дом, быт, семья, досуг, Санкт-Петербург, Компьютеры и интернет, Наука и образование, Техническая литература, Юридическая литература

Цифровые товары

iTunes & App Store, Базы данных, Дизайн, Доступ к ресурсам, Kарты продления, ключи, Фотографии, Шаблоны для сайтов

Программное обеспечение

Безопасность, Игры, PC, Интернет, Мобильная связь, Программирование, Продвижение сайтов (SEO), Утилиты
У Вас отключен VIP статус, поэтому Вам показывается реклама на сайте. Вы можете поддержать наш ресурс и приобрести VIP статус, тем самым отключив показ рекламы на сайте, а ещё VIP пользователи получают возможность

смотреть аниме онлайн в HD качестве

(не распространяется на раздел Flarrow Films), а так же получить 5 инвайтов, которыми можно поделиться с друзьями или знакомыми.
Дешевый и быстрый Сидбокс

Ключи и пин-коды

Игры, Кредитные карты, IP-телефония, Интернет провайдеры, Мобильная связь, Спутниковое ТВ

Электронные книги

Бизнес и экономика, Дом, быт, семья, досуг, Санкт-Петербург, Компьютеры и интернет, Наука и образование, Техническая литература, Юридическая литература

Цифровые товары

iTunes & App Store, Базы данных, Дизайн, Доступ к ресурсам, Kарты продления, ключи, Фотографии, Шаблоны для сайтов

Программное обеспечение

Безопасность, Игры, PC, Интернет, Мобильная связь, Программирование, Продвижение сайтов (SEO), Утилиты
[Профиль] [ЛС]
Показать сообщения:    
Ответить на тему

Текущее время: 20-Окт 11:22

Часовой пояс: UTC + 4



Вы не можете начинать темы
Вы не можете отвечать на сообщения
Вы не можете редактировать свои сообщения
Вы не можете удалять свои сообщения
Вы не можете голосовать в опросах
Вы не можете прикреплять файлы к сообщениям
Вы можете скачивать файлы
Анализ сайта korsars.pro Яндекс.Метрика