Этому глупому свину и не снилась девочка-зайка / Seishun Buta Yaro wa Yumemiru Shoujo no Yume wo Minai (2019) BDRip от Deadmauvlad | D | Wakanim

Ответить на тему
Статистика раздачи [Обновить пиров]
Размер:  1,24 GB   |    Зарегистрирован:  1 год 8 месяцев   |    .torrent скачан:  6 раз
Раздают:  30  [  0 KB/s  ]   Качают:  2  [  0 KB/s  ]   Подробная статистика пиров
 
   
 
 
Автор Сообщение

4udaki ®

Оффлайн

Медали


Пол: Мужской

Стаж: 6 лет 11 месяцев

Наличие запрета:

Сообщений: 11587

Откуда: korsars.pro

Отдача: 2 Mb/s

Загрузка: 20 Mb/s

Нажми


Скачать Adguard бесплатно

Создавать темы 10-Фев-2020 21:00

[Цитировать]

Информация о фильме
Название: Этот глупый свин не понимает мечту девочки-зайки (Негодник, которому не снилась девушка-кролик)
Оригинальное название: Seishun Buta Yaro wa Yumemiru Shoujo no Yume wo Minai
Год выпуска: 2019
Жанр: комедия, романтика, сёнэн, школа
Премьера: 15 июня 2019
Режиссер: Масуй Сойти
Автор оригинала: Камосида Хадзимэ
Снято по ранобэ: Эта глупая свинья не понимает мечту девочки-зайки!
Возрастное ограничение: 14+
В ролях: Каито Исикава, Асами Сэто, Инори Минасэ, Юрика Кубо
О фильме: Будут экранизированы 6 и 7 тома ранобэ.
Фудзисава, яркое небо, блестящее на солнце море... Чего ещё может желать второкурсник старшей школы Сакута Адзусагава, проводящий блаженные дни в компании своей подруги Маи Сакурадзимы? Наверное, всё что угодно, но точно не встречи с Сёко Макинохарой, своей первой любовью. Кроме того, странные обстоятельства сталкивают парня с двумя Сёко: школьницей и взрослой женщиной.
Поскольку в жизни Сакута оказывается беспомощным с Сёко-школьницей, взрослая её версия начинает водить его за нос, тем самым внося серьёзный разлад в его отношениях с Маи.
Посреди всех этих событий он обнаруживает, что Сёко в старшей школе страдает от тяжёлой болезни, и его рана вновь начинает кровоточить...- -Страна: Япония
Студия: CloverWorks
Продолжительность: 01:29:56
Перевод: Профессиональный Дублированный, StudioBand по заказу Wakanim
Файл
Качество: BDRip [**Исходник: Blu-Ray Disk]
Контейнер: *AVI
Кодек: XviD
Видео: 720x400 (16:9), 23.976 fps, 1 581 kb/s (0.229 bit/pixel)
Аудио №1: AC-3, 48.0 kHz, 2 ch, 192 kb/s, CBR | | Wakanim
Аудио №2: AC-3, 48.0 kHz, 2 ch, 192 kb/s, CBR | | Japan (Оригинал)
Субтитры: Отсутствуют

MediaInfo

General
Complete name : [Deadmau- RAWS] Seishun.Buta.Yarou.wa.Yumemiru.Shoujo.no.Yume.o.Minai.2019.Rus.Jap.BDRip.Deadmauvlad.1.24.GB.avi
Format : AVI
Format/Info : Audio Video Interleave
File size : 1.24 GiB
Duration : 1 h 29 min
Overall bit rate : 1 979 kb/s
Movie name : [Deadmau- RAWS] Seishun.Buta.Yarou.wa.Yumemiru.Shoujo.no.Yume.o.Minai.2019.Rus.Jap.BDRip.Deadmauvlad.1.24.GB
Director : Encoder by Deadmauvlad
Genre : Комедия, романтика, школа
Writing application : VirtualDubMod 1.5.10.3 | www.virtualdub-fr.org || (build 2550/release)
Original source form/Name : Аниме
Copyright : Encoder by Deadmauvlad
Comment : Encoder by Deadmauvlad
Video
ID : 0
Format : MPEG-4 Visual
Format profile : Advanced Simple@L5
Format settings : BVOP1 / Custom Matrix
Format settings, BVOP : 1
Format settings, QPel : No
Format settings, GMC : No warppoints
Format settings, Matrix : Custom
Codec ID : XVID
Codec ID/Hint : XviD
Duration : 1 h 29 min
Bit rate : 1 581 kb/s
Width : 720 pixels
Height : 400 pixels
Display aspect ratio : 16:9
Frame rate : 23.976 (24000/1001) FPS
Color space : YUV
Chroma subsampling : 4:2:0
Bit depth : 8 bits
Scan type : Progressive
Compression mode : Lossy
Bits/(Pixel*Frame) : 0.229
Stream size : 1 017 MiB (80%)
Writing library : XviD 73
Audio #1
ID : 1
Format : AC-3
Format/Info : Audio Coding 3
Commercial name : Dolby Digital
Codec ID : 2000
Duration : 1 h 29 min
Bit rate mode : Constant
Bit rate : 192 kb/s
Channel(s) : 2 channels
Channel layout : L R
Sampling rate : 48.0 kHz
Frame rate : 31.250 FPS (1536 SPF)
Bit depth : 16 bits
Compression mode : Lossy
Stream size : 124 MiB (10%)
Alignment : Split accross interleaves
Interleave, duration : 42 ms (1.00 video frame)
Interleave, preload duration : 500 ms
Audio #2
ID : 2
Format : AC-3
Format/Info : Audio Coding 3
Commercial name : Dolby Digital
Codec ID : 2000
Duration : 1 h 29 min
Bit rate mode : Constant
Bit rate : 192 kb/s
Channel(s) : 2 channels
Channel layout : L R
Sampling rate : 48.0 kHz
Frame rate : 31.250 FPS (1536 SPF)
Bit depth : 16 bits
Compression mode : Lossy
Stream size : 124 MiB (10%)
Alignment : Split accross interleaves
Interleave, duration : 42 ms (1.00 video frame)
Interleave, preload duration : 500 ms

Скриншоты

ЦитатаКто-то писал:
1. Исходник: [Movie]青春笨蛋少年不会梦到怀梦美少女/Seishun Buta Yarou wa Yumemiru Shoujo no Yume o Minai/青春ブタ野郎はゆめみる少女の夢を見ない спасибо Neko_FeliXXX
2. ***Примечание: Без какой-либо рекламы!
3. *** Ретайминг: DS29028888Релиз / Автор рипа: Deadmauvlad
[korsars.pro].t26271.torrent 
Торрент: Зарегистрирован [ 2020-02-10 21:00 ] · 5B057B7989E57C800094BCDBC63F65A6A6F9DA24

Скачать .torrent

Размер .torrent файла 3 KB

Статус: проверено
.torrent скачан: 6 раз
Размер: 1,24 GB
Правила
Похожие темы

Вы не зарегистрированы на нашем сайте. Вам доступна для скачивания только часть контента. Чтобы увидеть весь контент сайта, пожалуйста, зарегистрироруйтесь.

Дешевый и быстрый Сидбокс

Ключи и пин-коды

Игры, Кредитные карты, IP-телефония, Интернет провайдеры, Мобильная связь, Спутниковое ТВ

Электронные книги

Бизнес и экономика, Дом, быт, семья, досуг, Санкт-Петербург, Компьютеры и интернет, Наука и образование, Техническая литература, Юридическая литература

Цифровые товары

iTunes & App Store, Базы данных, Дизайн, Доступ к ресурсам, Kарты продления, ключи, Фотографии, Шаблоны для сайтов

Программное обеспечение

Безопасность, Игры, PC, Интернет, Мобильная связь, Программирование, Продвижение сайтов (SEO), Утилиты
У Вас отключен VIP статус, поэтому Вам показывается реклама на сайте. Вы можете поддержать наш ресурс и приобрести VIP статус, тем самым отключив показ рекламы на сайте, а ещё VIP пользователи получают возможность

смотреть аниме онлайн в HD качестве

(не распространяется на раздел Flarrow Films), а так же получить 5 инвайтов, которыми можно поделиться с друзьями или знакомыми.
Дешевый и быстрый Сидбокс

Ключи и пин-коды

Игры, Кредитные карты, IP-телефония, Интернет провайдеры, Мобильная связь, Спутниковое ТВ

Электронные книги

Бизнес и экономика, Дом, быт, семья, досуг, Санкт-Петербург, Компьютеры и интернет, Наука и образование, Техническая литература, Юридическая литература

Цифровые товары

iTunes & App Store, Базы данных, Дизайн, Доступ к ресурсам, Kарты продления, ключи, Фотографии, Шаблоны для сайтов

Программное обеспечение

Безопасность, Игры, PC, Интернет, Мобильная связь, Программирование, Продвижение сайтов (SEO), Утилиты
[Профиль] [ЛС]
Показать сообщения:    
Ответить на тему

Текущее время: 28-Окт 03:30

Часовой пояс: UTC + 4



Вы не можете начинать темы
Вы не можете отвечать на сообщения
Вы не можете редактировать свои сообщения
Вы не можете удалять свои сообщения
Вы не можете голосовать в опросах
Вы не можете прикреплять файлы к сообщениям
Вы можете скачивать файлы
Анализ сайта korsars.pro Яндекс.Метрика