Беспокойные сердца / Kimi ga nozomu eien [S01+Спешлы] (2003-2004) HDRip от Deadmauvlad | D | Лицензия

Ответить на тему
Статистика раздачи [Обновить пиров]
Размер:  5,32 GB   |    Зарегистрирован:  1 год 8 месяцев   |    .torrent скачан:  5 раз
Раздают:  6  [  0 KB/s  ]   Подробная статистика пиров
 
   
 
 
Автор Сообщение

4udaki ®

Онлайн

Медали


Пол: Мужской

Стаж: 6 лет 11 месяцев

Наличие запрета:

Сообщений: 11538

Откуда: korsars.pro

Отдача: 2 Mb/s

Загрузка: 20 Mb/s

Нажми


Скачать Adguard бесплатно

Создавать темы 04-Фев-2020 01:00

[Цитировать]

Информация о фильме
Название: Беспокойные сердца
Оригинальное название: Kimi ga nozomu eien
Год выхода: 2003-2004
Жанр: комедия, романтика
Режиссер: Тэцуя Ватанабэ, Тору Китахата, Хирокадзу Ямада
В главных ролях: Кисё Танияма, Макото Аоки, Минами Курибаяси, Тиаки Такахаси, Трина Нисимура, Рэнди Таллман, Киёми Асаи, Каори Мидзухаси, Кадзуя Сугисаки,Кодзуэ Ёсидзуми
Роли дублировали: Борис Алексеев, Андрей Лунёв, Христина Полуянова, Анастасия Ечеина, Анна Балицкая
О фильме:
Всем в этом мире не угодишь. Особенно если в тебя влюблены две очаровательные девушки, а выбирать приходится только одну. Самый обычный старшеклассник Такаюки Наруми рано постиг эту простую истину. Всё началось, когда Такаюки со своим приятелем Синдзи Тайрой познакомился с двумя девушками: смелой и сильной Мицуки Хаясэ и её подругой, загадочной тихоней Харукой Судзумией. Через некоторое время выяснится, что Харука уже давно влюблена в Такаюки, а Мицуки вызвалась помочь подруге в любовных делах. Но Мицуки стала замечать за собой, что тоже заинтересовалась этим парнем.
Но случайная трагедия нарушает повседневную жизнь героев, и теперь им нужно окончательно разобраться в своих чувствах, чтобы не разрушить в своей душе чувства друг к другу.-
Возрастное ограничение: R-17+ (Присутствуют сцены легкой Эротики)
Страна: Япония
Студия: Studio Fantasia
Продолжительность: 14x ~00:24:00 + 02x ~00:05:00
Перевод: Профессиональный (дублированный) | (Лицензия) Reanimedia по заказу XL Media [**]
Файл
Формат / Кодек: AVI / XviD
Качество: HDRip [Исходник: [Moozzi2] Kimi ga Nozomu Eien BD-BOX (BD 1440x1080 x.264 FLACx2) - TV ]
Видео: 720x528 (4:3), 23.976 fps, 1641 Кбит/сек (0.180 bit/pixel)
Аудио №1: AC-3, 48,0 КГц, 6 ch, 384 Кбит/сек, CBR | | Reanimedia
Аудио №2: AC-3, 48,0 КГц, 2 ch, 192 Кбит/сек, CBR | | Оригинал
Субтитры: русские (полный перевод, ASS) - XL Media-

Список Серий

01. Из друзей в любовники
02. Ожидание
03. Двигаясь вперед
04. Обманутые любовью
05. Сбитые с пути
06. Желания
07. Постоянные сомнения
08. Старые шрамы – новые шрамы
09. Распутывание
10. Толчок
11. Там, где находится вина
12. Из друзей в неприятели
13. Наверстать прошлое
14. «Подарок Маяуру»
Sp1. Театр Аю и Маю
Sp2. Пародия на "Гандам"
-

MediaInfo

Общее
Полное имя : E:animeРаздача[Deadmau-RAWS] Беспокойные.Сердца.2003-2004.S01+Special.RUS.DUB.JAP.HDRip.Deadmauvlad.Ep.01.avi
Формат : AVI
Формат/Информация : Audio Video Interleave
Размер файла : 382 Мбайт
Продолжительность : 23 м. 55 с.
Общий поток : 2231 Кбит/сек
Название фильма : [Deadmau-RAWS] Беспокойные.Сердца.2003-2004.S01+Special.RUS.DUB.JAP.HDRip.Deadmauvlad.Ep.01
Режиссёр : Encoder by Deadmauvlad
Жанр : Драма, Романтика
Программа кодирования : VirtualDubMod 1.5.10.3 | www.virtualdub-fr.org || (build 2550/release)
Формат оригинала/Имя : Аниме
Авторское право : Encoder by Deadmauvlad
Примечание : Encoder by Deadmauvlad
Видео
Идентификатор : 0
Формат : MPEG-4 Visual
Профиль формата : Advanced Simple@L5
Настройки формата : BVOP1 / Custom Matrix
Параметр BVOP формата : 1
Параметр QPel формата : Нет
Параметр GMC формата : Без точки перехода
Параметр матрицы формата : Выборочная
Идентификатор кодека : XVID
Идентификатор кодека/Подсказка : XviD
Продолжительность : 23 м. 55 с.
Битрейт : 1641 Кбит/сек
Ширина : 720 пикселей
Высота : 528 пикселей
Соотношение сторон : 4:3
Частота кадров : 23,976 (24000/1001) кадра/сек
Цветовое пространство : YUV
Субдискретизация насыщенности : 4:2:0
Битовая глубина : 8 бит
Тип развёртки : Прогрессивная
Метод сжатия : С потерями
Бит/(Пиксели*Кадры) : 0.180
Размер потока : 281 Мбайт (74%)
Библиотека кодирования : XviD 73
Аудио #1
Идентификатор : 1
Формат : AC-3
Формат/Информация : Audio Coding 3
Коммерческое название : Dolby Digital
Идентификатор кодека : 2000
Продолжительность : 23 м. 55 с.
Вид битрейта : Постоянный
Битрейт : 384 Кбит/сек
Каналы : 6 каналов
Channel layout : L R C LFE Ls Rs
Частота : 48,0 КГц
Частота кадров : 31,250 кадров/сек (1536 SPF)
Битовая глубина : 16 бит
Метод сжатия : С потерями
Задержка видео : 50 мс.
Размер потока : 65,7 Мбайт (17%)
Выравнивание : Разделение по промежуткам
Продолжительность промежутка : 42 мс. (1,00 видеокадр)
Время предзагрузки промежутка : 500 мс.
Аудио #2
Идентификатор : 2
Формат : AC-3
Формат/Информация : Audio Coding 3
Коммерческое название : Dolby Digital
Идентификатор кодека : 2000
Продолжительность : 23 м. 55 с.
Вид битрейта : Постоянный
Битрейт : 192 Кбит/сек
Каналы : 2 канала
Channel layout : L R
Частота : 48,0 КГц
Частота кадров : 31,250 кадров/сек (1536 SPF)
Битовая глубина : 16 бит
Метод сжатия : С потерями
Размер потока : 32,9 Мбайт (9%)
Выравнивание : Разделение по промежуткам
Продолжительность промежутка : 42 мс. (1,00 видеокадр)
Время предзагрузки промежутка : 500 мс.
-

Скриншоты

О релизе

1. Ретайминг под BD by Deadmauvlad
2. Сравнение DVD (Rip) VS BD (HDRip) http://www.framecompare.com/image-compare/screenshotcomparison/DK667NNX
3. Звук AC3 192 тайминг by Zаbr ссылка > > https://mega.nz/#F!tBZz3IrL!NNEWKpnJylshDa59IlMy8Q
4. Русские лицензионные диски (мои)
Скриншот
- -
[korsars.pro].t26105.torrent 
Торрент: Зарегистрирован [ 2020-02-04 01:00 ] · 4A27B0D58013EFF4C0E26F645865642C5BBA0AD8

Скачать .torrent

Размер .torrent файла 12 KB

Статус: проверено
.torrent скачан: 5 раз
Размер: 5,32 GB
Правила
Похожие темы

Вы не зарегистрированы на нашем сайте. Вам доступна для скачивания только часть контента. Чтобы увидеть весь контент сайта, пожалуйста, зарегистрироруйтесь.

Дешевый и быстрый Сидбокс

Ключи и пин-коды

Игры, Кредитные карты, IP-телефония, Интернет провайдеры, Мобильная связь, Спутниковое ТВ

Электронные книги

Бизнес и экономика, Дом, быт, семья, досуг, Санкт-Петербург, Компьютеры и интернет, Наука и образование, Техническая литература, Юридическая литература

Цифровые товары

iTunes & App Store, Базы данных, Дизайн, Доступ к ресурсам, Kарты продления, ключи, Фотографии, Шаблоны для сайтов

Программное обеспечение

Безопасность, Игры, PC, Интернет, Мобильная связь, Программирование, Продвижение сайтов (SEO), Утилиты
У Вас отключен VIP статус, поэтому Вам показывается реклама на сайте. Вы можете поддержать наш ресурс и приобрести VIP статус, тем самым отключив показ рекламы на сайте, а ещё VIP пользователи получают возможность

смотреть аниме онлайн в HD качестве

(не распространяется на раздел Flarrow Films), а так же получить 5 инвайтов, которыми можно поделиться с друзьями или знакомыми.
Дешевый и быстрый Сидбокс

Ключи и пин-коды

Игры, Кредитные карты, IP-телефония, Интернет провайдеры, Мобильная связь, Спутниковое ТВ

Электронные книги

Бизнес и экономика, Дом, быт, семья, досуг, Санкт-Петербург, Компьютеры и интернет, Наука и образование, Техническая литература, Юридическая литература

Цифровые товары

iTunes & App Store, Базы данных, Дизайн, Доступ к ресурсам, Kарты продления, ключи, Фотографии, Шаблоны для сайтов

Программное обеспечение

Безопасность, Игры, PC, Интернет, Мобильная связь, Программирование, Продвижение сайтов (SEO), Утилиты
[Профиль] [ЛС]
Показать сообщения:    
Ответить на тему

Текущее время: 22-Окт 23:02

Часовой пояс: UTC + 4



Вы не можете начинать темы
Вы не можете отвечать на сообщения
Вы не можете редактировать свои сообщения
Вы не можете удалять свои сообщения
Вы не можете голосовать в опросах
Вы не можете прикреплять файлы к сообщениям
Вы можете скачивать файлы
Анализ сайта korsars.pro Яндекс.Метрика