Геоблюстители / Geobreeders OVA 01-02 [01-07 из 07] (1998-2000) DVDRip от Deadmauvlad | L1, L2

Ответить на тему
Статистика раздачи [Обновить пиров]
Размер:  2,51 GB   |    Зарегистрирован:  1 год 8 месяцев   |    .torrent скачан:  2 раза
Раздают:  4  [  0 KB/s  ]   Качают:  1  [  0 KB/s  ]   Подробная статистика пиров
 
   
 
 
Автор Сообщение

4udaki ®

Оффлайн

Медали


Пол: Мужской

Стаж: 6 лет 11 месяцев

Наличие запрета:

Сообщений: 11567

Откуда: korsars.pro

Отдача: 2 Mb/s

Загрузка: 20 Mb/s

Нажми


Скачать Adguard бесплатно

Создавать темы 31-Янв-2020 13:00

[Цитировать]

Информация о фильме
Название: Геоблюстители OVA 01-02
Оригинальное название: Geobreeders OVA 01-02
Год выхода: 1998-2000
Жанр: комедия, приключения, фантастика, этти
Режиссер: Юдзи Морияма, Арлен Тарлофски
В главных ролях: Скотт Каргл, Рэйчел Лиллис, Синъитиро Мики, Сатоми Короги, Ая Хисакава, Акико Ядзима, Юка Имаи, Наруми Хидака, Криспин Фриман, Тристан Годдар-О фильме: «Добро пожаловать в Службу Абсолютной Безопасности «Кагура», компанию, специализирующуюся в ловле котов-призраков».
И не надо смеяться. Да, они выглядят, как маленькие прелестные кошечки. Но это не отменяет того факта, что на самом деле это - духи, способные оживлять любые магнитные данные... Эти комки меха способны использовать все возможные программы и брать под контроль любое компьютеризированное устройство в поле зрения. Добавьте к этому физическую неуязвимость в форме человека, и вы получите действенный рецепт неприятностей. Но ведь пока на страже симпатичные девушки из «Кагуры», не будет никаких проблем?-
Страна: Япония
Студия: Chaos Project; Victor Company of Japan Ltd. (JVC)
Продолжительность: 07 серий x ~ 00:28:00
Перевод: Любительский Двухголосый закадровый Azazel, Jade (ОВА 01)
Перевод: Любительский Одноголосый закадровый Persona99 (ОВА 02)
Файл
Кодек: XviD
Качество: DVDRip Исходник: US/R1 DVD (U.S. Manga Corps) thx Neko_FeliXXX]
Видео: 720x528 (4:3), 23.976 fps, 1 445 kb/s (0.159 bit/pixel)
Аудио №1: AC-3, 48,0 КГц, 2 ch, 192 Кбит/сек, CBR | | Azazel, Jade / Persona99
Аудио №2: AC-3, 48,0 КГц, 2 ch, 192 Кбит/сек, CBR | | Japan (Оригинал)
Русские Субтитры: Есть-

Список эпизодов

OVA 01
01. File-X "Get Back the Kitty" - Act 1
02. File-X "Get Back the Kitty" - Act 2
03. File-X "Get Back the Kitty" - Act 3
OVA 02
01. File-XX "Breakthrough" - Act 1
02. File-XX "Breakthrough" - Act 2
03. File-XX "Breakthrough" - Act 3
04. File-XX "Breakthrough" - Act 4
-

MediaInfo

General
Complete name : [Deadmau- RAWS] Geobreeders.OVA-01.DVDRip.Deadmauvlad.Ep.01.avi
Format : AVI
Format/Info : Audio Video Interleave
File size : 363 MiB
Duration : 27 min 33 s
Overall bit rate : 1 843 kb/s
Movie name : [Deadmau- RAWS] Geobreeders.OVA-01.DVDRip.Deadmauvlad.Ep.01
Director : Encoder by Deadmauvlad
Genre : комедия, эротика, фантастика
Writing application : VirtualDubMod 1.5.10.3 | www.virtualdub-fr.org || (build 2550/release)
Original source form/Name : Аниме
Copyright : Encoder by Deadmauvlad
Comment : Encoder by Deadmauvlad
Video
ID : 0
Format : MPEG-4 Visual
Format profile : Advanced Simple@L5
Format settings : BVOP1 / Custom Matrix
Format settings, BVOP : 1
Format settings, QPel : No
Format settings, GMC : No warppoints
Format settings, Matrix : Custom
Codec ID : XVID
Codec ID/Hint : XviD
Duration : 27 min 33 s
Bit rate : 1 445 kb/s
Width : 720 pixels
Height : 528 pixels
Display aspect ratio : 4:3
Frame rate : 23.976 (24000/1001) FPS
Color space : YUV
Chroma subsampling : 4:2:0
Bit depth : 8 bits
Scan type : Progressive
Compression mode : Lossy
Bits/(Pixel*Frame) : 0.159
Stream size : 285 MiB (78%)
Writing library : XviD 73
Audio #1
ID : 1
Format : AC-3
Format/Info : Audio Coding 3
Commercial name : Dolby Digital
Codec ID : 2000
Duration : 27 min 33 s
Bit rate mode : Constant
Bit rate : 192 kb/s
Channel(s) : 2 channels
Channel layout : L R
Sampling rate : 48.0 kHz
Frame rate : 31.250 FPS (1536 SPF)
Bit depth : 16 bits
Compression mode : Lossy
Stream size : 37.9 MiB (10%)
Alignment : Split accross interleaves
Interleave, duration : 42 ms (1.00 video frame)
Interleave, preload duration : 500 ms
Audio #2
ID : 2
Format : AC-3
Format/Info : Audio Coding 3
Commercial name : Dolby Digital
Codec ID : 2000
Duration : 27 min 33 s
Bit rate mode : Constant
Bit rate : 192 kb/s
Channel(s) : 2 channels
Channel layout : L R
Sampling rate : 48.0 kHz
Frame rate : 31.250 FPS (1536 SPF)
Bit depth : 16 bits
Compression mode : Lossy
Stream size : 37.9 MiB (10%)
Alignment : Split accross interleaves
Interleave, duration : 42 ms (1.00 video frame)
Interleave, preload duration : 500 ms

Скриншоты

Релиз / Автор рипа: >Deadmauvlad <
[korsars.pro].t26038.torrent 
Торрент: Зарегистрирован [ 2020-01-31 13:00 ] · C58C52CCB9AF5493B5BEBA43B31413936F9E8591

Скачать .torrent

Размер .torrent файла 15 KB

Статус: проверено
.torrent скачан: 2 раз
Размер: 2,51 GB
Правила

Вы не зарегистрированы на нашем сайте. Вам доступна для скачивания только часть контента. Чтобы увидеть весь контент сайта, пожалуйста, зарегистрироруйтесь.

Дешевый и быстрый Сидбокс

Ключи и пин-коды

Игры, Кредитные карты, IP-телефония, Интернет провайдеры, Мобильная связь, Спутниковое ТВ

Электронные книги

Бизнес и экономика, Дом, быт, семья, досуг, Санкт-Петербург, Компьютеры и интернет, Наука и образование, Техническая литература, Юридическая литература

Цифровые товары

iTunes & App Store, Базы данных, Дизайн, Доступ к ресурсам, Kарты продления, ключи, Фотографии, Шаблоны для сайтов

Программное обеспечение

Безопасность, Игры, PC, Интернет, Мобильная связь, Программирование, Продвижение сайтов (SEO), Утилиты
У Вас отключен VIP статус, поэтому Вам показывается реклама на сайте. Вы можете поддержать наш ресурс и приобрести VIP статус, тем самым отключив показ рекламы на сайте, а ещё VIP пользователи получают возможность

смотреть аниме онлайн в HD качестве

(не распространяется на раздел Flarrow Films), а так же получить 5 инвайтов, которыми можно поделиться с друзьями или знакомыми.
Дешевый и быстрый Сидбокс

Ключи и пин-коды

Игры, Кредитные карты, IP-телефония, Интернет провайдеры, Мобильная связь, Спутниковое ТВ

Электронные книги

Бизнес и экономика, Дом, быт, семья, досуг, Санкт-Петербург, Компьютеры и интернет, Наука и образование, Техническая литература, Юридическая литература

Цифровые товары

iTunes & App Store, Базы данных, Дизайн, Доступ к ресурсам, Kарты продления, ключи, Фотографии, Шаблоны для сайтов

Программное обеспечение

Безопасность, Игры, PC, Интернет, Мобильная связь, Программирование, Продвижение сайтов (SEO), Утилиты
[Профиль] [ЛС]
Показать сообщения:    
Ответить на тему

Текущее время: 24-Окт 19:21

Часовой пояс: UTC + 4



Вы не можете начинать темы
Вы не можете отвечать на сообщения
Вы не можете редактировать свои сообщения
Вы не можете удалять свои сообщения
Вы не можете голосовать в опросах
Вы не можете прикреплять файлы к сообщениям
Вы можете скачивать файлы
Анализ сайта korsars.pro Яндекс.Метрика