Заботливая 800-летняя жена! / Заботливая лисичка Сэнко-сан / Sewayaki Kitsune no Senko-san [S01] (2019) BDRip от Deadmauvlad | L2 | Anidub

Ответить на тему
Статистика раздачи [Обновить пиров]
Размер:  3,44 GB   |    Зарегистрирован:  1 год 11 месяцев   |    .torrent скачан:  8 раз
Раздают:  30  [  0 KB/s  ]   Качают:  8  [  0 KB/s  ]   Подробная статистика пиров
 
   
 
 
Автор Сообщение

4udaki ®

Оффлайн

Медали


Пол: Мужской

Стаж: 7 лет 2 месяца

Наличие запрета:

Сообщений: 13820

Откуда: korsars.pro

Отдача: 2 Mb/s

Загрузка: 20 Mb/s

Нажми


Скачать Adguard бесплатно

Создавать темы 30-Янв-2020 17:00

[Цитировать]

Информация о фильме
Название: Заботливая лисичка Сэнко-сан /Заботливая 800-летняя жена!
Оригинальное название: Sewayaki Kitsune no Senko-san
Год выхода: 2019
Жанр: комедия, повседневность, романтика, сверхъестественное
Режиссер: Томоаки Косида
Автор оригинала: Римукоро
Снято по манге: Заботливая 800-летняя жена!
В ролях: Дзюнъити Сувабэ, Адзуми Ваки, Аянэ Сакура, Маая Утида, Эри Китамура
О фильме: : В несчастливой и напряжённой жизни молодого служащего Накано вряд ли можно разглядеть позитивные моменты, что уж говорить об отдыхе и развлечениях. Парень с утра до вечера пашет на своей работе, уделяя ей почти всё свободное время. Но однажды ночью, вернувшись после очередного трудового дня и едва открыв дверь своего дома, он обнаружил, что какая-то маленькая и симпатичная девчушка с лисьими ушами и хвостом готовит для него ужин. Отойдя от шока и перекинувшись с незнакомкой парой фраз, Накано узнаёт: имя — Сэнко, профессия — 800-летняя кицунэ, посланная на Землю из мира духов, чтобы спасти хозяина дома от его несчастной жизни и помочь ему снова обрести счастье. С этого момента благодаря Сэнко жизнь Накано непременно начнёт меняться к лучшему!-
Страна: Япония
Студия: Dogakobo
Продолжительность: 12 серий x ~ 00:25:00
Перевод: Любительский (Двухголосый, закадровый) Berserk, Orru [Anidub]
Качество: BDRip [**Исходники: BDRemux 1080p thx antiBILLotic]
Контейнер: AVI
Кодек: XviD
Видео: 720x400 (16:9), 23.976 fps, 1 431 kb/s (0.207 bit/pixel)
Аудио №1: AC-3, 48,0 КГц, 2 ch, 192 Кбит/сек, CBR | | Anidub
Аудио №2: AC-3, 48,0 КГц, 2 ch, 192 /сек, CBR | | Japan (Оригинал)
Русские Субтитры: Есть (Полный Перевод)-

Список Серий

01. Буду баловать его сколько душеньке угодно
02. Не надо стесняться!
03. Пока ты счастлив
04. Почему ты должен работать в выходной!?
05. У меня ведь тоже есть хвост, верно?
06. Тебе бы только гладить
07. От тебя пахнет другой лисицей
08. Я заставлю тебя забыть об этом
09. Теперь не так нелепо?
10. Здорово ведь иногда поребячиться?
11. Тяжёлая будет ночка
12. И всё же...

MediaInfo

General
Complete name : Sewayaki.Kitsune.no.Senko-san.2019.S01.Rus.Jap.BDRip.Deadmauvlad.Ep.01.avi
Format : AVI
Format/Info : Audio Video Interleave
File size : 309 MiB
Duration : 23 min 35 s
Overall bit rate : 1 829 kb/s
Movie name : Sewayaki.Kitsune.no.Senko-san.2019.S01.Rus.Jap.BDRip.Deadmauvlad.Ep.01
Director : Encoder by Deadmauvlad
Genre : комедия, повседневность
Writing application : VirtualDubMod 1.5.10.3 | www.virtualdub-fr.org || (build 2550/release)
Original source form/Name : Аниме
Copyright : Encoder by Deadmauvlad
Comment : Encoder by Deadmauvlad
Video
ID : 0
Format : MPEG-4 Visual
Format profile : Advanced Simple@L5
Format settings : BVOP1 / Custom Matrix
Format settings, BVOP : 1
Format settings, QPel : No
Format settings, GMC : No warppoints
Format settings, Matrix : Custom
Codec ID : XVID
Codec ID/Hint : XviD
Duration : 23 min 35 s
Bit rate : 1 431 kb/s
Width : 720 pixels
Height : 400 pixels
Display aspect ratio : 16:9
Frame rate : 23.976 (24000/1001) FPS
Color space : YUV
Chroma subsampling : 4:2:0
Bit depth : 8 bits
Scan type : Progressive
Compression mode : Lossy
Bits/(Pixel*Frame) : 0.207
Stream size : 242 MiB (78%)
Writing library : XviD 73
Audio #1
ID : 1
Format : AC-3
Format/Info : Audio Coding 3
Commercial name : Dolby Digital
Codec ID : 2000
Duration : 23 min 35 s
Bit rate mode : Constant
Bit rate : 192 kb/s
Channel(s) : 2 channels
Channel layout : L R
Sampling rate : 48.0 kHz
Frame rate : 31.250 FPS (1536 SPF)
Bit depth : 16 bits
Compression mode : Lossy
Stream size : 32.4 MiB (10%)
Alignment : Split accross interleaves
Interleave, duration : 42 ms (1.00 video frame)
Interleave, preload duration : 500 ms
Audio #2
ID : 2
Format : AC-3
Format/Info : Audio Coding 3
Commercial name : Dolby Digital
Codec ID : 2000
Duration : 23 min 35 s
Bit rate mode : Constant
Bit rate : 192 kb/s
Channel(s) : 2 channels
Channel layout : L R
Sampling rate : 48.0 kHz
Frame rate : 31.250 FPS (1536 SPF)
Bit depth : 16 bits
Compression mode : Lossy
Stream size : 32.4 MiB (10%)
Alignment : Split accross interleaves
Interleave, duration : 42 ms (1.00 video frame)
Interleave, preload duration : 500 ms

Скриншоты

Релиз / Автор рипа: Deadmauvlad
[korsars.pro].t26018.torrent 
Торрент: Зарегистрирован [ 2020-01-30 17:00 ] · 6B613AD3BD2C095DEF54E20CA454E0C0B95CF5DB

Скачать .torrent

Размер .torrent файла 8 KB

Статус: проверено
.torrent скачан: 8 раз
Размер: 3,44 GB
Правила
Похожие темы

Вы не зарегистрированы на нашем сайте. Вам доступна для скачивания только часть контента. Чтобы увидеть весь контент сайта, пожалуйста, зарегистрироруйтесь.

Дешевый и быстрый Сидбокс

Ключи и пин-коды

Игры, Кредитные карты, IP-телефония, Интернет провайдеры, Мобильная связь, Спутниковое ТВ

Электронные книги

Бизнес и экономика, Дом, быт, семья, досуг, Санкт-Петербург, Компьютеры и интернет, Наука и образование, Техническая литература, Юридическая литература

Цифровые товары

iTunes & App Store, Базы данных, Дизайн, Доступ к ресурсам, Kарты продления, ключи, Фотографии, Шаблоны для сайтов

Программное обеспечение

Безопасность, Игры, PC, Интернет, Мобильная связь, Программирование, Продвижение сайтов (SEO), Утилиты
У Вас отключен VIP статус, поэтому Вам показывается реклама на сайте. Вы можете поддержать наш ресурс и приобрести VIP статус, тем самым отключив показ рекламы на сайте, а ещё VIP пользователи получают возможность

смотреть аниме онлайн в HD качестве

(не распространяется на раздел Flarrow Films), а так же получить 5 инвайтов, которыми можно поделиться с друзьями или знакомыми.
Дешевый и быстрый Сидбокс

Ключи и пин-коды

Игры, Кредитные карты, IP-телефония, Интернет провайдеры, Мобильная связь, Спутниковое ТВ

Электронные книги

Бизнес и экономика, Дом, быт, семья, досуг, Санкт-Петербург, Компьютеры и интернет, Наука и образование, Техническая литература, Юридическая литература

Цифровые товары

iTunes & App Store, Базы данных, Дизайн, Доступ к ресурсам, Kарты продления, ключи, Фотографии, Шаблоны для сайтов

Программное обеспечение

Безопасность, Игры, PC, Интернет, Мобильная связь, Программирование, Продвижение сайтов (SEO), Утилиты
[Профиль] [ЛС]
Показать сообщения:    
Ответить на тему

Текущее время: 22-Янв 22:25

Часовой пояс: UTC + 4



Вы не можете начинать темы
Вы не можете отвечать на сообщения
Вы не можете редактировать свои сообщения
Вы не можете удалять свои сообщения
Вы не можете голосовать в опросах
Вы не можете прикреплять файлы к сообщениям
Вы можете скачивать файлы
Анализ сайта korsars.pro Яндекс.Метрика