Детектив Конан: Реквием частных сыщиков / Detective Conan: Tantei-tachi no Requiem (2006) BDRip 1080p | L

Ответить на тему
Статистика раздачи [Обновить пиров]
Размер:  4,55 GB   |    Зарегистрирован:  1 год 9 месяцев   |    .torrent скачан:  4 раза
Раздают:  1  [  0 KB/s  ]   Качают:  2  [  0 KB/s  ]   Подробная статистика пиров
 
   
 
 
 
Автор Сообщение

4udaki ®

Оффлайн

Медали


Пол: Мужской

Стаж: 6 лет 11 месяцев

Наличие запрета:

Сообщений: 11587

Откуда: korsars.pro

Отдача: 2 Mb/s

Загрузка: 20 Mb/s

Нажми


Скачать Adguard бесплатно

Создавать темы 11-Янв-2020 17:00

[Цитировать]


Детектив Конан (фильм 10):Реквием частных сыщиков / Detective Conan: Tantei-tachi no Requiem / Metective Conan: The Private Eyes' Requiem

Информация о фильме
Название: Детектив Конан 10: Реквием частных сыщиков
Оригинальное название: Meitantei Conan: Tantei-tachi no Requiem
Год выхода: 2006
Жанр: приключения, детектив
Режиссер: Ямамото Ясуйтиро
О фильме:
Мори Koгорo и Конан приезжают в Йокогаму по просьбе таинственного человека, но это оказывается подстроенной ловушкой. Ран и молодые детективы становятся заложниками. Если в течении 12 часов не будет разгадана загадка таинственного человека, то взорвется бомба. Кроме того, незнакомец знает, что истинная личность Конана - это Кудо Шиничи. Смогут ли они выполнить задание в срок, а также выяснить личность клиента?
Доп. информация:
Релиз GSGroup


Страна: Япония
Студия: TMS
Продолжительность: 01:51:00
Перевод: Любительский одноголосый (Persona99)
Файл
Кодек: x264
Качество: BDRip
Видео: 1920x1080, 23.976 fps, ~3801 Kbps, 8 bits
Звук:
1. AC3 48 КГц; 448 Кбит/сек, 2 ch Язык Русский (в составе контейнера) ; Озвучка: Любительский одноголосый (Persona99)
2. DTS 48 КГц; 1510 Кбит/сек, 6 ch, Язык Японский ; Озвучка 2: Оригинал
Субтитры: встроеные ass, srt Язык субтитров русский ; Перевод, wquolz, тайминг: Roaring_Lion
Sempl:

Подробные тех. данные

General
Unique ID : 225867629232996455519990515245670309362 (0xA9EC85E74F522603B8E9797B20E59DF2)
Complete name : EDetective Conan Movie 10 - Tantei-tachi no Requiem.[Persona99].2006.(BDrip.x264.1080p).rus.jpn.mkv
Format : Matroska
Format version : Version 2
File size : 4.55 GiB
Duration : 1h 50mn
Overall bit rate mode : Variable
Overall bit rate : 5 863 Kbps
Encoded date : UTC 2019-01-08 14:53:01
Writing application : mkvmerge v4.1.1 ('Bouncin' Back') built on Jul 3 2010 22:54:08
Writing library : libebml v1.0.0 + libmatroska v1.0.0
Video
ID : 1
Format : AVC
Format/Info : Advanced Video Codec
Format profile : High@L4.1
Format settings, CABAC : Yes
Format settings, ReFrames : 3 frames
Codec ID : V_MPEG4/ISO/AVC
Duration : 1h 50mn
Bit rate mode : Variable
Bit rate : 3 789 Kbps
Maximum bit rate : 40.0 Mbps
Width : 1 920 pixels
Height : 1 080 pixels
Display aspect ratio : 16:9
Frame rate mode : Constant
Frame rate : 23.976 fps
Color space : YUV
Chroma subsampling : 4:2:0
Bit depth : 8 bits
Scan type : Progressive
Bits/(Pixel*Frame) : 0.076
Stream size : 2.94 GiB (65%)
Writing library : x264 core 104 r1713 c276662
Encoding settings : cabac=1 / ref=4 / deblock=1:-2:-2 / analyse=0x3:0x113 / me=esa / subme=10 / psy=0 / mixed_ref=1 / me_range=32 / chroma_me=1 / trellis=2 / 8x8dct=1 / cqm=0 / deadzone=21,11 / fast_pskip=0 / chroma_qp_offset=0 / threads=6 / sliced_threads=0 / slices=4 / nr=0 / decimate=0 / interlaced=0 / constrained_intra=0 / bframes=3 / b_pyramid=1 / b_adapt=1 / b_bias=0 / direct=1 / weightb=1 / open_gop=0 / weightp=2 / keyint=24 / keyint_min=2 / scenecut=40 / intra_refresh=0 / rc_lookahead=24 / rc=crf / mbtree=1 / crf=20.0 / qcomp=0.70 / qpmin=10 / qpmax=51 / qpstep=4 / vbv_maxrate=40000 / vbv_bufsize=30000 / crf_max=0.0 / ip_ratio=1.40 / aq=1:1.00 / nal_hrd=vbr
Default : Yes
Forced : No
Audio #1
ID : 2
Format : AC-3
Format/Info : Audio Coding 3
Mode extension : CM (complete main)
Format settings, Endianness : Big
Muxing mode : Header stripping
Codec ID : A_AC3
Duration : 1h 50mn
Bit rate mode : Constant
Bit rate : 448 Kbps
Channel(s) : 2 channels
Channel positions : Front: L R
Sampling rate : 48.0 KHz
Compression mode : Lossy
Stream size : 356 MiB (8%)
Title : Persona99
Language : Russian
Default : Yes
Forced : No
Audio #2
ID : 3
Format : DTS
Format/Info : Digital Theater Systems
Mode : 16
Format settings, Endianness : Big
Muxing mode : Header stripping
Codec ID : A_DTS
Duration : 1h 50mn
Bit rate mode : Constant
Bit rate : 1 510 Kbps
Channel(s) : 6 channels
Channel positions : Front: L C R, Side: L R, LFE
Sampling rate : 48.0 KHz
Bit depth : 24 bits
Compression mode : Lossy
Stream size : 1.17 GiB (26%)
Language : Japanese
Default : No
Forced : No
Text #1
ID : 4
Format : ASS
Codec ID : S_TEXT/ASS
Codec ID/Info : Advanced Sub Station Alpha
Compression mode : Lossless
Title : ass
Language : Russian
Default : No
Forced : No
Text #2
ID : 5
Format : UTF-8
Codec ID : S_TEXT/UTF8
Codec ID/Info : UTF-8 Plain Text
Title : srt
Language : Russian
Default : No
Forced : No

Скриншоты

[korsars.pro].t25571.torrent 
Торрент: Зарегистрирован [ 2020-01-11 17:00 ] · 4D77274961767F1129B409F12ED89189E9599A5A

Скачать .torrent

Размер .torrent файла 24 KB

Статус: проверено
.torrent скачан: 4 раз
Размер: 4,55 GB
Правила
Похожие темы

Вы не зарегистрированы на нашем сайте. Вам доступна для скачивания только часть контента. Чтобы увидеть весь контент сайта, пожалуйста, зарегистрироруйтесь.

Дешевый и быстрый Сидбокс

Ключи и пин-коды

Игры, Кредитные карты, IP-телефония, Интернет провайдеры, Мобильная связь, Спутниковое ТВ

Электронные книги

Бизнес и экономика, Дом, быт, семья, досуг, Санкт-Петербург, Компьютеры и интернет, Наука и образование, Техническая литература, Юридическая литература

Цифровые товары

iTunes & App Store, Базы данных, Дизайн, Доступ к ресурсам, Kарты продления, ключи, Фотографии, Шаблоны для сайтов

Программное обеспечение

Безопасность, Игры, PC, Интернет, Мобильная связь, Программирование, Продвижение сайтов (SEO), Утилиты
У Вас отключен VIP статус, поэтому Вам показывается реклама на сайте. Вы можете поддержать наш ресурс и приобрести VIP статус, тем самым отключив показ рекламы на сайте, а ещё VIP пользователи получают возможность

смотреть аниме онлайн в HD качестве

(не распространяется на раздел Flarrow Films), а так же получить 5 инвайтов, которыми можно поделиться с друзьями или знакомыми.
Дешевый и быстрый Сидбокс

Ключи и пин-коды

Игры, Кредитные карты, IP-телефония, Интернет провайдеры, Мобильная связь, Спутниковое ТВ

Электронные книги

Бизнес и экономика, Дом, быт, семья, досуг, Санкт-Петербург, Компьютеры и интернет, Наука и образование, Техническая литература, Юридическая литература

Цифровые товары

iTunes & App Store, Базы данных, Дизайн, Доступ к ресурсам, Kарты продления, ключи, Фотографии, Шаблоны для сайтов

Программное обеспечение

Безопасность, Игры, PC, Интернет, Мобильная связь, Программирование, Продвижение сайтов (SEO), Утилиты
[Профиль] [ЛС]
Показать сообщения:    
Ответить на тему

Текущее время: 28-Окт 03:37

Часовой пояс: UTC + 4



Вы не можете начинать темы
Вы не можете отвечать на сообщения
Вы не можете редактировать свои сообщения
Вы не можете удалять свои сообщения
Вы не можете голосовать в опросах
Вы не можете прикреплять файлы к сообщениям
Вы можете скачивать файлы
Анализ сайта korsars.pro Яндекс.Метрика