Любовь тирана / Renai Boukun [S01] (2017) BDRip | L2 | AniDub

Ответить на тему
Статистика раздачи [Обновить пиров]
Размер:  4,13 GB   |    Зарегистрирован:  1 год 11 месяцев   |    .torrent скачан:  5 раз
Раздают:  2  [  0 KB/s  ]   Качают:  4  [  0 KB/s  ]   Подробная статистика пиров
 
   
 
 
 
Автор Сообщение

4udaki ®

Оффлайн

Медали


Пол: Мужской

Стаж: 7 лет 1 месяц

Наличие запрета:

Сообщений: 12166

Откуда: korsars.pro

Отдача: 2 Mb/s

Загрузка: 20 Mb/s

Нажми


Скачать Adguard бесплатно

Создавать темы 06-Янв-2020 09:00

[Цитировать]

Информация о фильме
Название: Любовь тирана
Оригинальное название: Renai Boukun
Жанр: гарем, комедия, романтика, сверхъестественное, сёнэн
Год выхода: 2017
Выпуск: с 7 апреля 2017 по 23 июня 2017
Трансляция: пятница в 02:35 [ночной сеанс] на TV Tokyo
Автор оригинала: Михоси Мэганэ
Снято по манге: Renai Boukun
Режиссер: Нигорикава Ацуси
В главных ролях: Ёсино Аояма, Юми Хара, Нобуюки Хияма, Кэнъю Хориути, Такэхито Коясу, Юки Нагано, Манами Нумакура, Кэнсё Оно, Риэ Такахаси, Хотю Оцука
Описание: Однажды Гури девушка-синигами, таинственным образом возникает перед старшеклассником Айнo Сэйдзи и пытается заставить его поцеловать какую-нибудь девушку. Ведь у нее есть предмет, который позволяет любую поцеловавшуюся пару превратить в любовников. Однако, Сэйдзи выбирает Гури. Но как это событие воспримет его одноклассница Хияма Аканэ, которая по совместительству типичная яндере?!

Страна: Япония
Студия: EMT Squared
Продолжительность: 12 серий x ~ 00:25:00
Перевод: Любительский (двухголосый закадровый) AniDub (JAM & Nika Lenina)
Файл
Качество: BDRip [Исходник: Blu-Ray DISK 1080p by Mysterious Riddle]
Формат видео: AVI
Кодек: XviD
Видео: 720x400 (16:9), 23.976 fps, 1635 kb/s (0.237 bit/pixel)
Аудио #1: AC-3, 48.0 kHz, 2 ch, 192 kb/s, CBR | | AniDub
Аудио #2: AC-3, 48.0 kHz, 2 ch, 192 kb/s, CBR | | Орининал
Русские Субтитры: Есть (Полный перевод) [AOS / AniPlay]

Список эпизодов

1 I`m Getting In on This, Too x Whoa! Forbidden Love?!
2 Sniff Sniff x The Only One Who May Hurt Seiji-kun... Is Me
3 I Can Handle This Myself! x Wassup
4 I`m Not Going to Lose! x Are You Like Me?
5 What Is Love? x Kami Is Prostrating Himself Now lolol
6 Go to the Beach with Me? x It`s Not a Matter of Knowing or Not
7 It`s a Festival x How Did It Come to This?!
8 Farewell x We`re Rivals, Obviously!!
9 Absolutely... Nothing... x There`s Just Something Wrong with Me...
10 I`m Here to Stay the Night x I`m... Growing Up, Too
11 Where Did She Go? x I Apologize for Troubling You Until Now
12 Right, Let`s All Die! x I Finally Understand.
-

Bonus содержит:

Оригинальные Опенинг и Эндинг без титров

MediaInfo

General
Complete name : [Deadmau- RAWS] Renai.Boukun.2017.S01.Rus.Jap.BDRip.Deadmauvlad.Ep.01.avi
Format : AVI
Format/Info : Audio Video Interleave
File size : 352 MiB
Duration : 23 min 57 s
Overall bit rate : 2 053 kb/s
Movie name : [Deadmau- RAWS] Любовь.Тирана.2017.S01.Rus.Jap.BDRip.Deadmauvlad.Ep.01
Director : Encoder by Deadmauvlad
Genre : гарем, комедия, романтика
Writing application : VirtualDubMod 1.5.10.3 | www.virtualdub-fr.org || (build 2550/release)
Original source form/Name : Аниме
Copyright : Encoder by Deadmauvlad
Comment : Encoder by Deadmauvlad
Video
ID : 0
Format : MPEG-4 Visual
Format profile : Advanced Simple@L5
Format settings : BVOP1 / Custom Matrix
Format settings, BVOP : 1
Format settings, QPel : No
Format settings, GMC : No warppoints
Format settings, Matrix : Custom
Codec ID : XVID
Codec ID/Hint : XviD
Duration : 23 min 57 s
Bit rate : 1 655 kb/s
Width : 720 pixels
Height : 400 pixels
Display aspect ratio : 16:9
Frame rate : 23.976 (24000/1001) FPS
Color space : YUV
Chroma subsampling : 4:2:0
Bit depth : 8 bits
Scan type : Progressive
Compression mode : Lossy
Bits/(Pixel*Frame) : 0.240
Stream size : 284 MiB (81%)
Writing library : XviD 73
Audio #1
ID : 1
Format : AC-3
Format/Info : Audio Coding 3
Commercial name : Dolby Digital
Codec ID : 2000
Duration : 24 min 14 s
Bit rate mode : Constant
Bit rate : 192 kb/s
Channel(s) : 2 channels
Channel layout : L R
Sampling rate : 48.0 kHz
Frame rate : 31.250 FPS (1536 SPF)
Bit depth : 16 bits
Compression mode : Lossy
Stream size : 33.3 MiB (9%)
Alignment : Split accross interleaves
Interleave, duration : 42 ms (1.00 video frame)
Interleave, preload duration : 500 ms
Audio #2
ID : 2
Format : AC-3
Format/Info : Audio Coding 3
Commercial name : Dolby Digital
Codec ID : 2000
Duration : 24 min 14 s
Bit rate mode : Constant
Bit rate : 192 kb/s
Channel(s) : 2 channels
Channel layout : L R
Sampling rate : 48.0 kHz
Frame rate : 31.250 FPS (1536 SPF)
Bit depth : 16 bits
Compression mode : Lossy
Stream size : 33.3 MiB (9%)
Alignment : Split accross interleaves
Interleave, duration : 42 ms (1.00 video frame)
Interleave, preload duration : 500 ms
-

Classic Yandere

ЦитатаКто-то писал:Эдакий стеб на Тетрадь Смерти плюс немного из Дневника будущего... Мне понравилось... 12 Гасай из 10Релиз / Автор рипа: >Deadmauvlad<
[korsars.pro].t25448.torrent 
Торрент: Зарегистрирован [ 2020-01-06 09:00 ] · 6317E4DAA46B492655580C12E3A63A174CE154FC

Скачать .torrent

Размер .torrent файла 11 KB

Статус: проверено
.torrent скачан: 5 раз
Размер: 4,13 GB
Правила
Похожие темы

Вы не зарегистрированы на нашем сайте. Вам доступна для скачивания только часть контента. Чтобы увидеть весь контент сайта, пожалуйста, зарегистрироруйтесь.

Дешевый и быстрый Сидбокс

Ключи и пин-коды

Игры, Кредитные карты, IP-телефония, Интернет провайдеры, Мобильная связь, Спутниковое ТВ

Электронные книги

Бизнес и экономика, Дом, быт, семья, досуг, Санкт-Петербург, Компьютеры и интернет, Наука и образование, Техническая литература, Юридическая литература

Цифровые товары

iTunes & App Store, Базы данных, Дизайн, Доступ к ресурсам, Kарты продления, ключи, Фотографии, Шаблоны для сайтов

Программное обеспечение

Безопасность, Игры, PC, Интернет, Мобильная связь, Программирование, Продвижение сайтов (SEO), Утилиты
У Вас отключен VIP статус, поэтому Вам показывается реклама на сайте. Вы можете поддержать наш ресурс и приобрести VIP статус, тем самым отключив показ рекламы на сайте, а ещё VIP пользователи получают возможность

смотреть аниме онлайн в HD качестве

(не распространяется на раздел Flarrow Films), а так же получить 5 инвайтов, которыми можно поделиться с друзьями или знакомыми.
Дешевый и быстрый Сидбокс

Ключи и пин-коды

Игры, Кредитные карты, IP-телефония, Интернет провайдеры, Мобильная связь, Спутниковое ТВ

Электронные книги

Бизнес и экономика, Дом, быт, семья, досуг, Санкт-Петербург, Компьютеры и интернет, Наука и образование, Техническая литература, Юридическая литература

Цифровые товары

iTunes & App Store, Базы данных, Дизайн, Доступ к ресурсам, Kарты продления, ключи, Фотографии, Шаблоны для сайтов

Программное обеспечение

Безопасность, Игры, PC, Интернет, Мобильная связь, Программирование, Продвижение сайтов (SEO), Утилиты
[Профиль] [ЛС]
Показать сообщения:    
Ответить на тему

Текущее время: 06-Дек 21:54

Часовой пояс: UTC + 4



Вы не можете начинать темы
Вы не можете отвечать на сообщения
Вы не можете редактировать свои сообщения
Вы не можете удалять свои сообщения
Вы не можете голосовать в опросах
Вы не можете прикреплять файлы к сообщениям
Вы можете скачивать файлы
Анализ сайта korsars.pro Яндекс.Метрика