Детектив-медиум Якумо / Shinrei Tantei Yakumo [01-13 из 13] (2010) BDRip 720p от lev99 | L2, L1

Ответить на тему
Статистика раздачи [Обновить пиров]
Размер:  9,11 GB   |    Зарегистрирован:  2 года 1 месяц   |    .torrent скачан:  6 раз
Раздают:  7  [  0 KB/s  ]   Качают:  1  [  0 KB/s  ]   Подробная статистика пиров
 
   
 
 
Автор Сообщение

4udaki ®

Оффлайн

Медали


Пол: Мужской

Стаж: 7 лет 2 месяца

Наличие запрета:

Сообщений: 13820

Откуда: korsars.pro

Отдача: 2 Mb/s

Загрузка: 20 Mb/s

Нажми


Скачать Adguard бесплатно

Создавать темы 10-Дек-2019 01:00

[Цитировать]

Информация о фильме
Название: Детектив-медиум Якумо
Оригинальное название: Shinrei Tantei Yakumo
Год выхода: 2010
Жанр: ужасы, детектив, мистика, сёдзё
Режиссер: Курокава Томоюки
В ролях: Аюми Фудзимура (Haruka Ozawa), Дайсукэ Оно (Yakumo Saito), Хироки Тоти (Kazutoshi Goto), Рёка Юдзуки (Miyuki Nanase), Ами Косимидзу (Nao), Мэгуми Тоёгути (Makoto Hijikata), Рокуро Ная (Hideyoshi Hata), Тосихико Сэки (Isshin Saito)
О фильме:
Зачем четверо студентов полезли в заброшенную школу? Сейчас вспоминать уже поздно, ибо один из четверки мертв, а другая явно одержима злыми духами. Харука Одзава, подруга пострадавшей и также участница неудачного похода, обращается за помощью к нелюдимому парню по имени Якумо Сайто, который, как поговаривают в кампусе, «что-то такое может». Как выясняется после ряда опасных приключений, кроваво-красный левый глаз ее нового знакомого и правда может видеть духов умерших, а сам хозяин умеет вступать с ними в контакт. В итоге прямая, открытая Харука и мрачноватый ироничный Якумо формируют странную пару, которая обречена на расследование сверхъестественных происшествий!
В лесу или каменных джунглях, за тысячи лет природа человека не меняется, и темная сторона периодически берет верх. Иногда только духи могут указать следы и вывести на верный путь, по которому в поисках истины следуют главные герои, часто в компании офицера полиции Кадзутоси Гото и его трусоватого помощника Ютаро Исии. Разоблачая маньяков и шарлатанов, черных магов и обычных убийц, Харука и Якумо не только освобождаются от тяжкого прошлого, но и лучше узнают друг друга! © Hollow, World Art

Страна: Япония
Студия: Bee Train
Продолжительность: ~00:25:00
Перевод:
Любительский двухголосый закадровый - Sad_kit & Milirina
Любительский двухголосый закадровый - FruKt (он же J-Dee) & Neotopia [1-3], FruKt & Sonata [4-13]
Любительский одноголосый закадровый - Persona99
Любительский одноголосый закадровый - Shachiburi [1-7], JAM [8-13]
Любительский одноголосый закадровый - OniChan
Файл
Кодек: h.264
Качество: BDRip 720p
Видео: x264@L4.1, 1280x720 (16:9), 23.976 fps, 2939 Mbps, 0.133 bit/pixel, 8 bit
Звук:
Аудио: AAC, 192 Kbps, 48.0Hz, 2 ch Язык Русский (в составе контейнера) ; Озвучка: Двухголосая (муж., жен.) Sad_kit & Milirina [Anything-group]
Аудио 2: AAC, 192 Kbps, 48.0Hz, 2 ch Язык Русский (в составе контейнера) ; Озвучка 2: Двухголосая (муж., жен.) FruKt (он же J-Dee) & Neotopia [1-3], FruKt & Sonata [4-13] [SHIZA Project]
Аудио 3: AAC, 192 Kbps, 48.0Hz, 2 ch Язык Русский (в составе контейнера) ; Озвучка 3: Одноголосная (жен.) Persona99 [GSGroup]
Аудио 4: AAC, 192 Kbps, 48.0Hz, 2 ch Язык Русский (в составе контейнера) ; Озвучка 4: Одноголосная (муж.) Shachiburi [1-7], JAM [8-13] Animedia [ARRU]
Аудио 5: AAC, 192 Kbps, 48.0Hz, 2 ch Язык Русский (в составе контейнера) ; Озвучка 5: Одноголосная (муж.) OniChan [AniDub]
Аудио 6: AAC, 192 Kbps, 48.0Hz, 2 ch Язык Японский ; Озвучка 6: Оригинальная
Субтитры: ASS, (Forced, Full) встроенные Язык субтитров русский ; Перевод: Dreamers Team & Hige-san
Семпл

Скриншоты

Список эпизодов

01. Закрытая комната
02. Проклятие белой лисицы
03. Тьма туннеля
04. То, что объединяет души ~Одержимость~
05. То, что объединяет души ~Оживление~
06. Дешёвое дело
07. Соединяя мысли ~Ловушка~
08. Соединяя мысли ~Связь~
09. Соединяя мысли ~Свет~
10. Границы невезения ~Заявление~
11. Границы невезения ~Кинжал убийцы~
12. Границы невезения ~Ярость~
13. Границы невезения ~Вечность~

MI

Unique ID : 170468737330205578079703689801411879299 (0x803F15A71334A027B329236DEF546183)
Complete name : [lev99] Shinrei Tantei Yakumo ver2 [BDRip 720p][lev99] Shinrei Tantei Yakumo 01 [BDRip 1280x720 x264 AAC].mkv
Format : Matroska
Format version : Version 4 / Version 2
File size : 718 Мбайт
Duration : 24 м. 30 с.
Overall bit rate : 4097 Кбит/сек
Movie name : Shinrei Tantei Yakumo 01
Encoded date : UTC 2018-05-07 21:07:03
Writing application : mkvmerge v23.0.0 ('The Bride Said No') 64-bit
Writing library : libebml v1.3.6 + libmatroska v1.4.9
Cover : Yes
Attachments : cover.jpg
Видео
ID : 1
Format : AVC
Format/Info : Advanced Video Codec
Format profile : High@L4.1
Format settings : CABAC / 9 Ref Frames
Format settings, CABAC : Да
Format settings, RefFrames : 9 кадров
Codec ID : V_MPEG4/ISO/AVC
Duration : 24 м. 29 с.
Bit rate : 2939 Кбит/сек
Width : 1280 пикселей
Height : 720 пикселей
Display aspect ratio : 16:9
Frame rate mode : Постоянный
Frame rate : 23,976 (24000/1001) кадра/сек
Color space : YUV
Chroma subsampling : 4:2:0
Bit depth : 8 бит
Scan type : Прогрессивная
Bits/(Pixel*Frame) : 0.133
Stream size : 515 Мбайт (72%)
Writing library : x264 core 155 r2901 7d0ff22
Encoding settings : cabac=1 / ref=9 / deblock=1:-2:-2 / analyse=0x3:0x133 / me=umh / subme=10 / psy=1 / psy_rd=1.00:0.25 / mixed_ref=1 / me_range=24 / chroma_me=1 / trellis=2 / 8x8dct=1 / cqm=0 / deadzone=6,6 / fast_pskip=1 / chroma_qp_offset=-4 / threads=12 / lookahead_threads=2 / sliced_threads=0 / nr=0 / decimate=0 / interlaced=0 / bluray_compat=0 / constrained_intra=0 / bframes=8 / b_pyramid=2 / b_adapt=2 / b_bias=0 / direct=3 / weightb=1 / open_gop=0 / weightp=2 / keyint=240 / keyint_min=23 / scenecut=40 / intra_refresh=0 / rc_lookahead=60 / rc=2pass / mbtree=1 / bitrate=2939 / ratetol=1.0 / qcomp=0.80 / qpmin=0 / qpmax=69 / qpstep=4 / cplxblur=20.0 / qblur=0.5 / vbv_maxrate=50000 / vbv_bufsize=62500 / nal_hrd=none / filler=0 / ip_ratio=1.10 / aq=1:0.50
Language : Japanese
Default : Да
Forced : Нет
Color range : Limited
Color primaries : BT.709
Transfer characteristics : BT.709
Matrix coefficients : BT.709
Аудио #1
ID : 2
Format : AAC
Format/Info : Advanced Audio Codec
Format profile : LC
Codec ID : A_AAC-2
Duration : 24 м. 29 с.
Bit rate : 192 Кбит/сек
Channel(s) : 2 канала
Channel positions : Front: L R
Sampling rate : 48,0 КГц
Frame rate : 46,875 кадров/сек (1024 SPF)
Compression mode : С потерями
Delay relative to video : 21 мс.
Stream size : 33,6 Мбайт (5%)
Title : Milirina & sad_kit
Language : Russian
Default : Да
Forced : Нет
Аудио #2
ID : 3
Format : AAC
Format/Info : Advanced Audio Codec
Format profile : LC
Codec ID : A_AAC-2
Duration : 24 м. 29 с.
Bit rate : 192 Кбит/сек
Channel(s) : 2 канала
Channel positions : Front: L R
Sampling rate : 48,0 КГц
Frame rate : 46,875 кадров/сек (1024 SPF)
Compression mode : С потерями
Delay relative to video : 21 мс.
Stream size : 33,6 Мбайт (5%)
Title : FruKt & Neotopia
Language : Russian
Default : Нет
Forced : Нет
Аудио #3
ID : 4
Format : AAC
Format/Info : Advanced Audio Codec
Format profile : LC
Codec ID : A_AAC-2
Duration : 24 м. 29 с.
Bit rate : 192 Кбит/сек
Channel(s) : 2 канала
Channel positions : Front: L R
Sampling rate : 48,0 КГц
Frame rate : 46,875 кадров/сек (1024 SPF)
Compression mode : С потерями
Delay relative to video : 21 мс.
Stream size : 33,6 Мбайт (5%)
Title : Persona99
Language : Russian
Default : Нет
Forced : Нет
Аудио #4
ID : 5
Format : AAC
Format/Info : Advanced Audio Codec
Format profile : LC
Codec ID : A_AAC-2
Duration : 24 м. 29 с.
Bit rate : 192 Кбит/сек
Channel(s) : 2 канала
Channel positions : Front: L R
Sampling rate : 48,0 КГц
Frame rate : 46,875 кадров/сек (1024 SPF)
Compression mode : С потерями
Delay relative to video : 21 мс.
Stream size : 33,6 Мбайт (5%)
Title : Shachiburi
Language : Russian
Default : Нет
Forced : Нет
Аудио #5
ID : 6
Format : AAC
Format/Info : Advanced Audio Codec
Format profile : LC
Codec ID : A_AAC-2
Duration : 24 м. 29 с.
Bit rate : 192 Кбит/сек
Channel(s) : 2 канала
Channel positions : Front: L R
Sampling rate : 48,0 КГц
Frame rate : 46,875 кадров/сек (1024 SPF)
Compression mode : С потерями
Delay relative to video : 21 мс.
Stream size : 33,6 Мбайт (5%)
Title : OniChan
Language : Russian
Default : Нет
Forced : Нет
Аудио #6
ID : 7
Format : AAC
Format/Info : Advanced Audio Codec
Format profile : LC
Codec ID : A_AAC-2
Duration : 24 м. 29 с.
Bit rate : 192 Кбит/сек
Channel(s) : 2 канала
Channel positions : Front: L R
Sampling rate : 48,0 КГц
Frame rate : 46,875 кадров/сек (1024 SPF)
Compression mode : С потерями
Delay relative to video : 21 мс.
Stream size : 33,6 Мбайт (5%)
Title : Original
Language : Japanese
Default : Нет
Forced : Нет
Текст #1
ID : 8
Format : ASS
Codec ID : S_TEXT/ASS
Codec ID/Info : Advanced Sub Station Alpha
Duration : 24 м. 21 с.
Bit rate : 29 бит/сек
Count of elements : 50
Compression mode : Без потерь
Stream size : 5,30 Кбайт (0%)
Title : Forced
Language : Russian
Default : Да
Forced : Нет
Текст #2
ID : 9
Format : ASS
Codec ID : S_TEXT/ASS
Codec ID/Info : Advanced Sub Station Alpha
Duration : 24 м. 21 с.
Bit rate : 137 бит/сек
Count of elements : 311
Compression mode : Без потерь
Stream size : 24,5 Кбайт (0%)
Title : Full
Language : Russian
Default : Нет
Forced : Нет
Меню
00:00:00.000 : :OP
00:01:15.992 : :Part A
00:10:47.021 : :Part B
00:22:47.783 : :ED
00:24:17.956 : :Next
[korsars.pro].t24739.torrent 
Торрент: Зарегистрирован [ 2019-12-10 01:00 ] · 74761F514A87A65FE417ABCDA01DB798872DA174

Скачать .torrent

Размер .torrent файла 25 KB

Статус: проверено
.torrent скачан: 6 раз
Размер: 9,11 GB
Правила
Похожие темы

Вы не зарегистрированы на нашем сайте. Вам доступна для скачивания только часть контента. Чтобы увидеть весь контент сайта, пожалуйста, зарегистрироруйтесь.

Дешевый и быстрый Сидбокс

Ключи и пин-коды

Игры, Кредитные карты, IP-телефония, Интернет провайдеры, Мобильная связь, Спутниковое ТВ

Электронные книги

Бизнес и экономика, Дом, быт, семья, досуг, Санкт-Петербург, Компьютеры и интернет, Наука и образование, Техническая литература, Юридическая литература

Цифровые товары

iTunes & App Store, Базы данных, Дизайн, Доступ к ресурсам, Kарты продления, ключи, Фотографии, Шаблоны для сайтов

Программное обеспечение

Безопасность, Игры, PC, Интернет, Мобильная связь, Программирование, Продвижение сайтов (SEO), Утилиты
У Вас отключен VIP статус, поэтому Вам показывается реклама на сайте. Вы можете поддержать наш ресурс и приобрести VIP статус, тем самым отключив показ рекламы на сайте, а ещё VIP пользователи получают возможность

смотреть аниме онлайн в HD качестве

(не распространяется на раздел Flarrow Films), а так же получить 5 инвайтов, которыми можно поделиться с друзьями или знакомыми.
Дешевый и быстрый Сидбокс

Ключи и пин-коды

Игры, Кредитные карты, IP-телефония, Интернет провайдеры, Мобильная связь, Спутниковое ТВ

Электронные книги

Бизнес и экономика, Дом, быт, семья, досуг, Санкт-Петербург, Компьютеры и интернет, Наука и образование, Техническая литература, Юридическая литература

Цифровые товары

iTunes & App Store, Базы данных, Дизайн, Доступ к ресурсам, Kарты продления, ключи, Фотографии, Шаблоны для сайтов

Программное обеспечение

Безопасность, Игры, PC, Интернет, Мобильная связь, Программирование, Продвижение сайтов (SEO), Утилиты
[Профиль] [ЛС]
Показать сообщения:    
Ответить на тему

Текущее время: 22-Янв 21:15

Часовой пояс: UTC + 4



Вы не можете начинать темы
Вы не можете отвечать на сообщения
Вы не можете редактировать свои сообщения
Вы не можете удалять свои сообщения
Вы не можете голосовать в опросах
Вы не можете прикреплять файлы к сообщениям
Вы можете скачивать файлы
Анализ сайта korsars.pro Яндекс.Метрика