Любовь и ложь / Koi to Uso [S01+OVA] (2017) BDRip, DVDRip от Deadmauvlad | P | Kansai

Ответить на тему
Статистика раздачи [Обновить пиров]
Размер:  4,04 GB   |    Зарегистрирован:  2 года 1 месяц   |    .torrent скачан:  15 раз
Раздают:  3  [  0 KB/s  ]   Качают:  2  [  0 KB/s  ]   Подробная статистика пиров
 
   
 
 
Автор Сообщение

4udaki ®

Оффлайн

Медали


Пол: Мужской

Стаж: 7 лет 2 месяца

Наличие запрета:

Сообщений: 13820

Откуда: korsars.pro

Отдача: 2 Mb/s

Загрузка: 20 Mb/s

Нажми


Скачать Adguard бесплатно

Создавать темы 04-Дек-2019 01:00

[Цитировать]

Информация о фильме
Название: Любовь и ложь
Оригинальное название: Koi to Uso / Love and Lies
Год выхода: 2017
Выпуск: с 4 июля 2017 по 19 сентября 2017
Трансляция: понедельник в 00:00 [ночной сеанс] на Tokyo MX TV
Жанр: драма, комедия, повседневность, романтика, сёнэн, школа
Режиссер: Такуно Сэйки
Автор оригинала: Мусао
Снято по манге: Koi to Uso
В ролях: Аои Морикава, Кана Ханадзава, Юи Макино, Синносукэ Татибана, Рёта Осака
О фильме: Ложь под запретом, а любовь и подавно! В ближайшем будущем, когда молодые люди достигают 16 лет, государство им подбирает партнера для брака. Больше не нужно мучиться и искать кого-то, всех устраивает то, что правительство подберет им идеального партнера для семейного счастья. Юкари Неджиме уже 15 и он давно хранит в своем сердце нежные чувства. Но что случится с его чувствами в мире, где любовь под запретом?-
Страна: Япония
Студия: Liden Films
Продолжительность: 12 серий x ~ 00:25:00
Перевод № 1: Профессиональный (многоголосый, закадровый) KANSAI (2017 год)
Перевод № 1.1: Любительский (Одноголосый, закадровый) Anistar (OVA) -Качество: BDRip (S01) / DVDRip (OVA)]
Контейнер: AVI
Кодек: XviD
Видео: 720x400 (16:9), 23.976 fps, 1 640 kb/s (0.238 bit/pixel)
Аудио №1: AC-3, 48,0 КГц, 2 ch, 192 Кбит/сек, CBR | | KANSAI
Аудио №2: AC-3, 48,0 КГц, 2 ch, 192 Кбит/сек, CBR | | Japan (Оригинал)
Русские Субтитры: Есть (01-12 Серии) (Полный Перевод)-

Список Серий

01. First Love
02. A Small Lie
03. Overlooked Love
04. The Science of Love
05. Risky Love
06. A Prison to Compel Love
07. A Silent Lie
08. Feelings Without Lies
09. So Bright It Doesn`t Seem Real
10. A Love to Give Everything For
11. I Don`t Care If It`s a Lie
12. Love and Lies
13. Любовь и ложь OVA

Хронология

#1 >>>Любовь и ложь - ТВ (12 эп.), адаптация манги, 2017 (Есть в раздаче)
#2 Любовь и ложь OVA - OVA (2 эп.), адаптация манги, 2018 (Есть в раздаче)

MediaInfo

General
Complete name : [Deadmau- RAWS] Любовь.И.Ложь.2017.S01.RUS.JAP.BDRip.Deadmauvlad.Серия.01.avi
Format : AVI
Format/Info : Audio Video Interleave
File size : 348 MiB
Duration : 23 min 53 s
Overall bit rate : 2 039 kb/s
Movie name : [Deadmau- RAWS] Любовь.И.Ложь.2017.S01.RUS.JAP.BDRip.Deadmauvlad.Серия.01
Director : Encoder by Deadmauvlad
Genre : драма, романтика, сёнэн, школа
Writing application : VirtualDubMod 1.5.10.3 | www.virtualdub-fr.org || (build 2550/release)
Writing library : VirtualDubMod build 2550/release
Original source form/Name : Аниме
Copyright : Encoder by Deadmauvlad
Comment : Encoder by Deadmauvlad
Video
ID : 0
Format : MPEG-4 Visual
Format profile : Advanced Simple@L5
Format settings : BVOP1 / Custom Matrix
Format settings, BVOP : 1
Format settings, QPel : No
Format settings, GMC : No warppoints
Format settings, Matrix : Custom
Codec ID : XVID
Codec ID/Hint : XviD
Duration : 23 min 53 s
Bit rate : 1 640 kb/s
Width : 720 pixels
Height : 400 pixels
Display aspect ratio : 16:9
Frame rate : 23.976 (24000/1001) FPS
Color space : YUV
Chroma subsampling : 4:2:0
Bit depth : 8 bits
Scan type : Progressive
Compression mode : Lossy
Bits/(Pixel*Frame) : 0.238
Stream size : 280 MiB (80%)
Writing library : XviD 73
Audio #1
ID : 1
Format : AC-3
Format/Info : Audio Coding 3
Commercial name : Dolby Digital
Codec ID : 2000
Duration : 23 min 53 s
Bit rate mode : Constant
Bit rate : 192 kb/s
Channel(s) : 2 channels
Channel layout : L R
Sampling rate : 48.0 kHz
Frame rate : 31.250 FPS (1536 SPF)
Bit depth : 16 bits
Compression mode : Lossy
Stream size : 32.8 MiB (9%)
Alignment : Split accross interleaves
Interleave, duration : 42 ms (1.00 video frame)
Interleave, preload duration : 500 ms
Audio #2
ID : 2
Format : AC-3
Format/Info : Audio Coding 3
Commercial name : Dolby Digital
Codec ID : 2000
Duration : 23 min 53 s
Bit rate mode : Constant
Bit rate : 192 kb/s
Channel(s) : 2 channels
Channel layout : L R
Sampling rate : 48.0 kHz
Frame rate : 31.250 FPS (1536 SPF)
Bit depth : 16 bits
Compression mode : Lossy
Stream size : 32.8 MiB (9%)
Alignment : Split accross interleaves
Interleave, duration : 42 ms (1.00 video frame)
Interleave, preload duration : 500 ms

Скриншоты

1. Удаление аудиорекламы а также сведение озвучек by Deadmauvlad
2. [Исходник: [BDMV] Koi to Uso Vol 01-06 Fin from U2
3. Спасибо за предоставленный (DVD5) ОВА эпизода Den4ik]
Релиз / Автор рипа: Deadmauvlad
[korsars.pro].t24567.torrent 
Торрент: Зарегистрирован [ 2019-12-04 01:00 ] · 45A433316B90FE037E8682A0A59EF8E5B58CA6A2

Скачать .torrent

Размер .torrent файла 15 KB

Статус: проверено
.torrent скачан: 15 раз
Размер: 4,04 GB
Правила
Похожие темы

Вы не зарегистрированы на нашем сайте. Вам доступна для скачивания только часть контента. Чтобы увидеть весь контент сайта, пожалуйста, зарегистрироруйтесь.

Дешевый и быстрый Сидбокс

Ключи и пин-коды

Игры, Кредитные карты, IP-телефония, Интернет провайдеры, Мобильная связь, Спутниковое ТВ

Электронные книги

Бизнес и экономика, Дом, быт, семья, досуг, Санкт-Петербург, Компьютеры и интернет, Наука и образование, Техническая литература, Юридическая литература

Цифровые товары

iTunes & App Store, Базы данных, Дизайн, Доступ к ресурсам, Kарты продления, ключи, Фотографии, Шаблоны для сайтов

Программное обеспечение

Безопасность, Игры, PC, Интернет, Мобильная связь, Программирование, Продвижение сайтов (SEO), Утилиты
У Вас отключен VIP статус, поэтому Вам показывается реклама на сайте. Вы можете поддержать наш ресурс и приобрести VIP статус, тем самым отключив показ рекламы на сайте, а ещё VIP пользователи получают возможность

смотреть аниме онлайн в HD качестве

(не распространяется на раздел Flarrow Films), а так же получить 5 инвайтов, которыми можно поделиться с друзьями или знакомыми.
Дешевый и быстрый Сидбокс

Ключи и пин-коды

Игры, Кредитные карты, IP-телефония, Интернет провайдеры, Мобильная связь, Спутниковое ТВ

Электронные книги

Бизнес и экономика, Дом, быт, семья, досуг, Санкт-Петербург, Компьютеры и интернет, Наука и образование, Техническая литература, Юридическая литература

Цифровые товары

iTunes & App Store, Базы данных, Дизайн, Доступ к ресурсам, Kарты продления, ключи, Фотографии, Шаблоны для сайтов

Программное обеспечение

Безопасность, Игры, PC, Интернет, Мобильная связь, Программирование, Продвижение сайтов (SEO), Утилиты
[Профиль] [ЛС]
Показать сообщения:    
Ответить на тему

Текущее время: 22-Янв 21:02

Часовой пояс: UTC + 4



Вы не можете начинать темы
Вы не можете отвечать на сообщения
Вы не можете редактировать свои сообщения
Вы не можете удалять свои сообщения
Вы не можете голосовать в опросах
Вы не можете прикреплять файлы к сообщениям
Вы можете скачивать файлы
Анализ сайта korsars.pro Яндекс.Метрика