Гроб принцессы Чайки / Hitsugi no Chaika [S01-02] (2014) BDRip от KORSARS.INFO | L | Anilibria

Ответить на тему
Статистика раздачи [Обновить пиров]
Размер:  7,49 GB   |    Зарегистрирован:  2 года   |    .torrent скачан:  3 раза
Раздают:  7  [  0 KB/s  ]   Качают:  5  [  0 KB/s  ]   Подробная статистика пиров
 
   
 
 
Автор Сообщение

4udaki ®

Оффлайн

Медали


Пол: Мужской

Стаж: 7 лет 1 месяц

Наличие запрета:

Сообщений: 12166

Откуда: korsars.pro

Отдача: 2 Mb/s

Загрузка: 20 Mb/s

Нажми


Скачать Adguard бесплатно

Создавать темы 03-Дек-2019 05:00

[Цитировать]

Информация о фильме
Название: Гроб принцессы Чайки
Оригинальное название: Hitsugi no Chaika
Год выхода: 2014
Жанр: приключения, фэнтези, комедия, романтика
Режиссер: Масуй Сойти
О фильме: Как уже бывало не раз, дрязги и предательство развалили некогда могучую, а ныне одряхлевшую империю. Алчные соседи, активно поучаствовавшие в развале, растащили территорию поверженного врага на куски, а группа убийц, толпой набросившихся на последнего императора, так же поступила с его телом. Кстати, убийцы теперь зовутся Восемь героев, ведь в мире меча и волшебства даже частица тела великого мага-правителя — могущественный талисман, дающий силу хозяину. После этого шесть победивших наций долго разбирались между собой на руинах, но постепенно был создан единый Совет и настал долгожданный мир.-
Выпущено: Bones
Продолжительность: 22 х ~ 00:25:00
Перевод: Любительский двухголосный (Lupin, Silv) (Anilibria)
Файл
Качество: BDRip [Исходник Blu-Ray Remux 1080p thx antiBILLotic]
Контейнер: AVI
Видео: XviD, 720x400 (16:9), 23.976 fps, 1660 Кбит/сек (0.240 bit/pixel)
Аудио 1: RUS : AC3, 2 ch , 48 KHz, 192 Kbps - Anilibria
Аудио 2: Jap: AC3, 2 ch , 48 KHz, 192 Kbps - Original
Субтитры: Русские (полные) от Timecraft редактор/оформление: AleX_MytH, переводчик/перевод песен: Nachtwandler

MediaInfo

Общее
Полное имя : S01Grob.Princessy.Chajki.2014.S01.L.Anilibria.BDRip.Deadmauvlad.Ep.01.avi
Формат : AVI
Формат/Информация : Audio Video Interleave
Размер файла : 349 Мбайт
Продолжительность : 23 м. 41 с.
Общий поток : 2058 Кбит/сек
Название фильма : Grob.Princessy.Chajki.2014.S01.L.Anilibria.BDRip.Deadmauvlad.Ep.01
Режиссёр : Encoder by Deadmauvlad
Жанр : фэнтези, комедия, романтика
Программа кодирования : VirtualDubMod 1.5.10.3 | www.virtualdub-fr.org || (build 2550/release)
Формат оригинала/Имя : Anime
Авторское право : Encoder by Deadmauvlad
Примечание : Encoder by Deadmauvlad
Видео
Идентификатор : 0
Формат : MPEG-4 Visual
Профиль формата : Advanced Simple@L5
Настройки формата : BVOP1 / Custom Matrix
Параметр BVOP формата : 1
Параметр QPel формата : Нет
Параметр GMC формата : Без точки перехода
Параметр матрицы формата : Выборочная
Идентификатор кодека : XVID
Идентификатор кодека/Подсказка : XviD
Продолжительность : 23 м. 41 с.
Битрейт : 1660 Кбит/сек
Ширина : 720 пикселей
Высота : 400 пикселей
Соотношение сторон : 16:9
Частота кадров : 23,976 (24000/1001) кадра/сек
Цветовое пространство : YUV
Субдискретизация насыщенности : 4:2:0
Битовая глубина : 8 бит
Тип развёртки : Прогрессивная
Метод сжатия : С потерями
Бит/(Пиксели*Кадры) : 0.240
Размер потока : 281 Мбайт (81%)
Библиотека кодирования : XviD 73
Аудио #1
Идентификатор : 1
Формат : AC-3
Формат/Информация : Audio Coding 3
Коммерческое название : Dolby Digital
Идентификатор кодека : 2000
Продолжительность : 23 м. 41 с.
Вид битрейта : Постоянный
Битрейт : 192 Кбит/сек
Каналы : 2 канала
Channel layout : L R
Частота : 48,0 КГц
Частота кадров : 31,250 кадров/сек (1536 SPF)
Битовая глубина : 16 бит
Метод сжатия : С потерями
Размер потока : 32,5 Мбайт (9%)
Выравнивание : Разделение по промежуткам
Продолжительность промежутка : 42 мс. (1,00 видеокадр)
Время предзагрузки промежутка : 500 мс.
Аудио #2
Идентификатор : 2
Формат : AC-3
Формат/Информация : Audio Coding 3
Коммерческое название : Dolby Digital
Идентификатор кодека : 2000
Продолжительность : 23 м. 41 с.
Вид битрейта : Постоянный
Битрейт : 192 Кбит/сек
Каналы : 2 канала
Channel layout : L R
Частота : 48,0 КГц
Частота кадров : 31,250 кадров/сек (1536 SPF)
Битовая глубина : 16 бит
Метод сжатия : С потерями
Размер потока : 32,5 Мбайт (9%)
Выравнивание : Разделение по промежуткам
Продолжительность промежутка : 42 мс. (1,00 видеокадр)
Время предзагрузки промежутка : 500 мс.
-

Список серий

SEASON 01
01. Девочка с гробом
02. Выбор лентяя
03. Лес, где ждёт герой
04. Желание драгуна
05. Погоня и беглецы
06. Красная и Белая
07. Долина, из которой нет возврата
08. Благодатная империя
09. Цена воспоминаний
10. Крепость в небесах
11. Фальшивая принцесса
12. Кого ты оставил позади

SEASON 02
01. Принцесса — охотница за останками
02. Гордость чародея
03. Гавань, где воскресают грёзы
04. Остров Змея
05. Наследие императора
06. Обитель безумия
07. План Чёрных
08. Предзнаменование раздора
09. Трон у преддверия войны
10. Девушка с магострелом

Скриншоты

[korsars.pro].t24548.torrent 
Торрент: Зарегистрирован [ 2019-12-03 05:00 ] · 33D6400E48F3ABA876B9833FB7E30722CAC26343

Скачать .torrent

Размер .torrent файла 15 KB

Статус: проверено
.torrent скачан: 3 раз
Размер: 7,49 GB
Правила
Похожие темы

Вы не зарегистрированы на нашем сайте. Вам доступна для скачивания только часть контента. Чтобы увидеть весь контент сайта, пожалуйста, зарегистрироруйтесь.

Дешевый и быстрый Сидбокс

Ключи и пин-коды

Игры, Кредитные карты, IP-телефония, Интернет провайдеры, Мобильная связь, Спутниковое ТВ

Электронные книги

Бизнес и экономика, Дом, быт, семья, досуг, Санкт-Петербург, Компьютеры и интернет, Наука и образование, Техническая литература, Юридическая литература

Цифровые товары

iTunes & App Store, Базы данных, Дизайн, Доступ к ресурсам, Kарты продления, ключи, Фотографии, Шаблоны для сайтов

Программное обеспечение

Безопасность, Игры, PC, Интернет, Мобильная связь, Программирование, Продвижение сайтов (SEO), Утилиты
У Вас отключен VIP статус, поэтому Вам показывается реклама на сайте. Вы можете поддержать наш ресурс и приобрести VIP статус, тем самым отключив показ рекламы на сайте, а ещё VIP пользователи получают возможность

смотреть аниме онлайн в HD качестве

(не распространяется на раздел Flarrow Films), а так же получить 5 инвайтов, которыми можно поделиться с друзьями или знакомыми.
Дешевый и быстрый Сидбокс

Ключи и пин-коды

Игры, Кредитные карты, IP-телефония, Интернет провайдеры, Мобильная связь, Спутниковое ТВ

Электронные книги

Бизнес и экономика, Дом, быт, семья, досуг, Санкт-Петербург, Компьютеры и интернет, Наука и образование, Техническая литература, Юридическая литература

Цифровые товары

iTunes & App Store, Базы данных, Дизайн, Доступ к ресурсам, Kарты продления, ключи, Фотографии, Шаблоны для сайтов

Программное обеспечение

Безопасность, Игры, PC, Интернет, Мобильная связь, Программирование, Продвижение сайтов (SEO), Утилиты
[Профиль] [ЛС]
Показать сообщения:    
Ответить на тему

Текущее время: 06-Дек 22:24

Часовой пояс: UTC + 4



Вы не можете начинать темы
Вы не можете отвечать на сообщения
Вы не можете редактировать свои сообщения
Вы не можете удалять свои сообщения
Вы не можете голосовать в опросах
Вы не можете прикреплять файлы к сообщениям
Вы можете скачивать файлы
Анализ сайта korsars.pro Яндекс.Метрика