Мы не можем учиться! / Bokutachi wa Benkyou ga Dekinai [S01] (2019) WEB-DLRip от MoscowGolem | D | Wakanim

Ответить на тему
Статистика раздачи [Обновить пиров]
Размер:  4,42 GB   |    Зарегистрирован:  1 год 10 месяцев   |    .torrent скачан:  1 раз
Раздают:  16  [  0 KB/s  ]   Качают:  3  [  0 KB/s  ]   Подробная статистика пиров
 
   
 
 
Автор Сообщение

4udaki ®

Онлайн

Медали


Пол: Мужской

Стаж: 6 лет 11 месяцев

Наличие запрета:

Сообщений: 11567

Откуда: korsars.pro

Отдача: 2 Mb/s

Загрузка: 20 Mb/s

Нажми


Скачать Adguard бесплатно

Создавать темы 28-Ноя-2019 01:00

[Цитировать]

Информация о фильме
Название: Мы не можем учиться!
Оригинальное название: Bokutachi wa Benkyou ga Dekinai
Год выхода: 2019
Жанр: комедия, романтика, Этти
Режиссер: Ивасаки Ёсиаки
О фильме:
Нариюки Юига, ученик с оценками выше среднего, был назначен репетитором для трёх гениев, каждый из которых был лучшим в своём предмете, чтобы получить стипендию и не платить за образование в будущем. Казалось бы, чему нужно обучать гениев? А всё не так просто, ведь, как оказалось, каждый гений был хорош исключительно в своём предмете, а про другие — вообще слыхом не слыхивал.
Так Фумино Фурухаси — литературное дарование, которому в страшных снах снится математика; Ридзу Огата — прирождённый математик и учёный, но литература и искусство — последнее, к чему бы она была склонна; Урука Такэмото — гений в спортивной области, но настолько плоха во всех других предметах, насколько это возможно.
Всем вместе им предстоит усердно учиться и стать лучшими в заброшенных предметах!

Страна: Япония
Студия: Silver
Продолжительность: 13 x ~00:23:00
Перевод: Дубляж | StudioBand [Wakanim]
Файл
Контейнер / Кодек: AVI / XviD
Качество: WEB-DLRip [WEB-DL 1080 by MoscowGolem]
Видео: XviD, 720x400 (16:9), 23.976 fps, 1657 Кбит/сек (0.240 bit/pixel)
Аудио #1: AC3, 192 Kbps, 48.0 KHz, 2 ch | | Озвучка от Wakanim]
Аудио #2: AC3, 192 Kbps, 48.0 KHz, 2 ch | | Оригинал-Субтитры: Русские (Надписи) (ХардСаб)

MediaInfo

Общее
Полное имя : My.Ne.MoZhem.U4itSya.D.2019.S01.RUS.Jap.WEB-DLRip.Deadmauvlad.Ep.01.avi
Формат : AVI
Формат/Информация : Audio Video Interleave
Размер файла : 347 Мбайт
Продолжительность : 23 м. 38 с.
Общий поток : 2055 Кбит/сек
Название фильма : My.Ne.MoZhem.U4itSya.D.2019.S01.RUS.Jap.WEB-DLRip.Deadmauvlad.Ep.01
Режиссёр : Encoder by Deadmauvlad
Жанр : Приключения, Фэнтези, Этти
Программа кодирования : VirtualDubMod 1.5.10.3 | www.virtualdub-fr.org || (build 2550/release)
Формат оригинала/Имя : Anime
Авторское право : Encoder by Deadmauvlad
Примечание : Encoder by Deadmauvlad
Видео
Идентификатор : 0
Формат : MPEG-4 Visual
Профиль формата : Advanced Simple@L5
Настройки формата : BVOP1 / Custom Matrix
Параметр BVOP формата : 1
Параметр QPel формата : Нет
Параметр GMC формата : Без точки перехода
Параметр матрицы формата : Выборочная
Идентификатор кодека : XVID
Идентификатор кодека/Подсказка : XviD
Продолжительность : 23 м. 38 с.
Битрейт : 1657 Кбит/сек
Ширина : 720 пикселей
Высота : 400 пикселей
Соотношение сторон : 16:9
Частота кадров : 23,976 (24000/1001) кадра/сек
Цветовое пространство : YUV
Субдискретизация насыщенности : 4:2:0
Битовая глубина : 8 бит
Тип развёртки : Прогрессивная
Метод сжатия : С потерями
Бит/(Пиксели*Кадры) : 0.240
Размер потока : 280 Мбайт (81%)
Библиотека кодирования : XviD 73
Аудио #1
Идентификатор : 1
Формат : AC-3
Формат/Информация : Audio Coding 3
Коммерческое название : Dolby Digital
Идентификатор кодека : 2000
Продолжительность : 23 м. 38 с.
Вид битрейта : Постоянный
Битрейт : 192 Кбит/сек
Каналы : 2 канала
Channel layout : L R
Частота : 48,0 КГц
Частота кадров : 31,250 кадров/сек (1536 SPF)
Битовая глубина : 16 бит
Метод сжатия : С потерями
Размер потока : 32,5 Мбайт (9%)
Выравнивание : Разделение по промежуткам
Продолжительность промежутка : 42 мс. (1,00 видеокадр)
Время предзагрузки промежутка : 500 мс.
Аудио #2
Идентификатор : 2
Формат : AC-3
Формат/Информация : Audio Coding 3
Коммерческое название : Dolby Digital
Идентификатор кодека : 2000
Продолжительность : 23 м. 38 с.
Вид битрейта : Постоянный
Битрейт : 192 Кбит/сек
Каналы : 2 канала
Channel layout : L R
Частота : 48,0 КГц
Частота кадров : 31,250 кадров/сек (1536 SPF)
Битовая глубина : 16 бит
Метод сжатия : С потерями
Размер потока : 32,5 Мбайт (9%)
Выравнивание : Разделение по промежуткам
Продолжительность промежутка : 42 мс. (1,00 видеокадр)
Время предзагрузки промежутка : 500 мс.

Список Серий

01. Хочу связаться, но хочу притворяться
02. Гений в X как рыба в воде
03. Гении учатся понимать чувства X
04. Таким образом, от гения она хочет Х
05. Гений заблудился в лесу из-за Х
06. Итак, гении Х не могут учиться
07. Х в тайных владениях предшественницы
08. Иногда любые усилия гения в милости у Х
09. В запретной зоне он борется из-за Х
10. Заблудший в новой земле агнец встречает Х
11. Иногда величественная предшественница прислуживает Х
12. Иногда гений вместе с Х вспоминает о разном
13. В глазах гения небесный свет — только Х

Скриншоты

-Релиз Без Рекламы √
[korsars.pro].t24395.torrent 
Торрент: Зарегистрирован [ 2019-11-28 01:00 ] · 92FEF6021DE816AA0006E41E3C8E91C7EFC10A32

Скачать .torrent

Размер .torrent файла 8 KB

Статус: проверено
.torrent скачан: 1 раз
Размер: 4,42 GB
Правила
Похожие темы

Вы не зарегистрированы на нашем сайте. Вам доступна для скачивания только часть контента. Чтобы увидеть весь контент сайта, пожалуйста, зарегистрироруйтесь.

Дешевый и быстрый Сидбокс

Ключи и пин-коды

Игры, Кредитные карты, IP-телефония, Интернет провайдеры, Мобильная связь, Спутниковое ТВ

Электронные книги

Бизнес и экономика, Дом, быт, семья, досуг, Санкт-Петербург, Компьютеры и интернет, Наука и образование, Техническая литература, Юридическая литература

Цифровые товары

iTunes & App Store, Базы данных, Дизайн, Доступ к ресурсам, Kарты продления, ключи, Фотографии, Шаблоны для сайтов

Программное обеспечение

Безопасность, Игры, PC, Интернет, Мобильная связь, Программирование, Продвижение сайтов (SEO), Утилиты
У Вас отключен VIP статус, поэтому Вам показывается реклама на сайте. Вы можете поддержать наш ресурс и приобрести VIP статус, тем самым отключив показ рекламы на сайте, а ещё VIP пользователи получают возможность

смотреть аниме онлайн в HD качестве

(не распространяется на раздел Flarrow Films), а так же получить 5 инвайтов, которыми можно поделиться с друзьями или знакомыми.
Дешевый и быстрый Сидбокс

Ключи и пин-коды

Игры, Кредитные карты, IP-телефония, Интернет провайдеры, Мобильная связь, Спутниковое ТВ

Электронные книги

Бизнес и экономика, Дом, быт, семья, досуг, Санкт-Петербург, Компьютеры и интернет, Наука и образование, Техническая литература, Юридическая литература

Цифровые товары

iTunes & App Store, Базы данных, Дизайн, Доступ к ресурсам, Kарты продления, ключи, Фотографии, Шаблоны для сайтов

Программное обеспечение

Безопасность, Игры, PC, Интернет, Мобильная связь, Программирование, Продвижение сайтов (SEO), Утилиты
[Профиль] [ЛС]
Показать сообщения:    
Ответить на тему

Текущее время: 24-Окт 18:39

Часовой пояс: UTC + 4



Вы не можете начинать темы
Вы не можете отвечать на сообщения
Вы не можете редактировать свои сообщения
Вы не можете удалять свои сообщения
Вы не можете голосовать в опросах
Вы не можете прикреплять файлы к сообщениям
Вы можете скачивать файлы
Анализ сайта korsars.pro Яндекс.Метрика