Моя девушка убежденная извращенка девственница / Boku no Kanojo ga Majime Sugiru Shobitch na Ken [S01+OVA] (2017) BDRip от Deadmauvlad | P | Kansai

Ответить на тему
Статистика раздачи [Обновить пиров]
Размер:  3,77 GB   |    Зарегистрирован:  2 года 1 месяц   |    .torrent скачан:  21 раз
Раздают:  5  [  0 KB/s  ]   Качают:  4  [  0 KB/s  ]   Подробная статистика пиров
 
   
 
 
Автор Сообщение

4udaki ®

Оффлайн

Медали


Пол: Мужской

Стаж: 7 лет 2 месяца

Наличие запрета:

Сообщений: 13820

Откуда: korsars.pro

Отдача: 2 Mb/s

Загрузка: 20 Mb/s

Нажми


Скачать Adguard бесплатно

Создавать темы 27-Ноя-2019 01:00

[Цитировать]

Информация о фильме
Название: Моя девушка убежденная извращенка девственница
Оригинальное название: Boku no Kanojo ga Majime Sugiru Shobitch na Ken
Год выхода: 2017
Выпуск: с 12 октября 2017 по 14 декабря 2017
Трансляция: четверг в 00:30 [ночной сеанс] на AT-X
Жанр: комедия, романтика, сёнэн, школа, этти
Автор оригинала: Мацумото Намиру
Снято по манге: Boku no Kanojo ga Majime Sugiru Shojo Bitch na Ken
Режиссер: Нагаяма Нобуёси
В главных ролях: Мицухиро Итики, Юки Яги, Нацуми Ямада, Аои Юки, Мики Хасэ, Марин Мидзутани, Нагацума Дзюри, Мэгуми Накамура, Иори Номидзу
О фильме: Ни для кого не секрет, что парни-школьники частенько помешаны на половых отношениях, ввиду отсутствия таковых. Мыслишки о том, что может светить им на горизонте, так и норовят затмить их юные разумы и свербят в самые неподходящие для того моменты. Но предположим, что есть один парень, совершенно обыкновенный, любопытство к взрослым темам у него на среднем уровне. Вроде как небезразлично, ведь по возрасту положено уже интересоваться, но и до крайностей не доходит. Зовут нашего героя - Харука Шинозаки.
И, как назло, именно ему досталась девчонка, о которой любой озабоченный подросток может только мечтать. Акихо Косака - "комсомолка, спортсменка и просто красавица”. Она изо всех сил пытается стать идеальной девушкой для Харуки, читает кучу статей о межполовых отношениях, как в психологическом плане, так и в физическом. Она стала настоящей эксперткой в этой теме, её выдающимся знаниям мог бы позавидовать любой взрослый, и теперь Акихо готова исполнить любые фантазии своего молодого человека.-
Страна: Япония
Студия:
Продолжительность: 11 серий x ~00:25:00
Перевод № 1: Профессиональный (многоголосый, закадровый) KANSAI (2017 год)
Перевод № 1.1: Любительский (Двухголосый, закадровый) AniMaunt (OVA)
Цензура: Отсутствует (см.спойлер)-Файл
Формат: AVI
Кодек: XviD
Качество: BDRip Исходник: [BDRemux 1080p]
Видео 720x400 (16:9), 23.976 fps, 1 591 kb/s (0.230 bit/pixel)
Аудио №1: AC-3, 48,0 КГц, 2 ch, 192 Кбит/сек, CBR | | KANSAI
Аудио №2: AC-3, 48,0 КГц, 2 ch, 224 Кбит/сек, CBR | | Japan (Оригинал)
Субтитры (Russian): ass, внешние | полный перевод [01-10 серии]-

Список Эпизодов

01. No, Don`t Open It So Wide Please...
02. "Just Whip It Out Now!" ...Can I Say That?
03. Ah, This Is My First Time Having Two at Once...
04. S-so This Is How It Goes, Huh...
05. It Tore... What Do I Do?!
06. D-Don`t Show This to Anyone Else, Okay?
07. Jeez... I Can`t Get My Mind Off of It...
08. I-I`m Not Saying You Can Take It That Far!
09. I Told You, Not So Suddenly!!
10. I Can`t... Take It... Any Longer!
11. Boku no Kanojo ga Majime Sugiru Shobitch na Ken OVA
-

Папка Bonus содержит

Оригинальные Опенинг и Эндинг без титров
-

MediaInfo

General
Complete name : [Deadmau- RAWS] Boku.no.Kanojo.ga.Majime.Sugiru.Shobitch.na.Ke.2017.S01.Uncensored.BDRip.RUS.JAP.Deadmauvlad.Ep.01.avi
Format : AVI
Format/Info : Audio Video Interleave
File size : 354 MiB
Duration : 23 min 42 s
Overall bit rate : 2 086 kb/s
Movie name : [Deadmau- RAWS] Моя.девушка.убеждённая.извращенка.девственница.2017.S01.Uncensored.BDRip.RUS.JAP.Deadmauvlad.Серия.01
Director : Encoder by Deadmauvlad
Genre : комедия, школа, этти
Writing application : VirtualDubMod 1.5.10.3 | www.virtualdub-fr.org || (build 2550/release)
Original source form/Name : Аниме
Copyright : Encoder by Deadmauvlad
Comment : Encoder by Deadmauvlad
Video
ID : 0
Format : MPEG-4 Visual
Format profile : Advanced Simple@L5
Format settings : BVOP1 / Custom Matrix
Format settings, BVOP : 1
Format settings, QPel : No
Format settings, GMC : No warppoints
Format settings, Matrix : Custom
Codec ID : XVID
Codec ID/Hint : XviD
Duration : 23 min 42 s
Bit rate : 1 656 kb/s
Width : 720 pixels
Height : 400 pixels
Display aspect ratio : 16:9
Frame rate : 23.976 (24000/1001) FPS
Color space : YUV
Chroma subsampling : 4:2:0
Bit depth : 8 bits
Scan type : Progressive
Compression mode : Lossy
Bits/(Pixel*Frame) : 0.240
Stream size : 281 MiB (79%)
Writing library : XviD 73
Audio #1
ID : 1
Format : AC-3
Format/Info : Audio Coding 3
Commercial name : Dolby Digital
Codec ID : 2000
Duration : 23 min 42 s
Bit rate mode : Constant
Bit rate : 192 kb/s
Channel(s) : 2 channels
Channel layout : L R
Sampling rate : 48.0 kHz
Frame rate : 31.250 FPS (1536 SPF)
Bit depth : 16 bits
Compression mode : Lossy
Stream size : 32.5 MiB (9%)
Alignment : Split accross interleaves
Interleave, duration : 42 ms (1.00 video frame)
Interleave, preload duration : 500 ms
Audio #2
ID : 2
Format : AC-3
Format/Info : Audio Coding 3
Commercial name : Dolby Digital
Codec ID : 2000
Duration : 23 min 42 s
Bit rate mode : Constant
Bit rate : 224 kb/s
Channel(s) : 2 channels
Channel layout : L R
Sampling rate : 48.0 kHz
Frame rate : 31.250 FPS (1536 SPF)
Bit depth : 16 bits
Compression mode : Lossy
Stream size : 38.0 MiB (11%)
Alignment : Split accross interleaves
Interleave, duration : 42 ms (1.00 video frame)
Interleave, preload duration : 500 ms

Отсутствие Цензуры

Обзор тут
> > https://www.sankakucomplex.com/2018/05/26/shobitch-oad-lewdly-showcases-nipples/

Скриншоты

ЦитатаКто-то писал:
1. Удаление аудиорекламы а также сведение озвучек by Deadmauvlad
2. [Исходник: [BDMV] Boku no Kanojo ga Majime Sugiru Shobitch na Ken VOL 01-05 Fin [72.5 GB] а также спасибо за предоставленный ремукс ОВА эпизода Neko_FeliXXX]Релиз / Автор рипа: >Deadmauvlad <BD Версия Без Цензуры !!
[korsars.pro].t24360.torrent 
Торрент: Зарегистрирован [ 2019-11-27 01:00 ] · C991B4536935E4E86D3BA4F4EF890FAB48ED6AAD

Скачать .torrent

Размер .torrent файла 9 KB

Статус: проверено
.torrent скачан: 21 раз
Размер: 3,77 GB
Правила
Похожие темы

Вы не зарегистрированы на нашем сайте. Вам доступна для скачивания только часть контента. Чтобы увидеть весь контент сайта, пожалуйста, зарегистрироруйтесь.

Дешевый и быстрый Сидбокс

Ключи и пин-коды

Игры, Кредитные карты, IP-телефония, Интернет провайдеры, Мобильная связь, Спутниковое ТВ

Электронные книги

Бизнес и экономика, Дом, быт, семья, досуг, Санкт-Петербург, Компьютеры и интернет, Наука и образование, Техническая литература, Юридическая литература

Цифровые товары

iTunes & App Store, Базы данных, Дизайн, Доступ к ресурсам, Kарты продления, ключи, Фотографии, Шаблоны для сайтов

Программное обеспечение

Безопасность, Игры, PC, Интернет, Мобильная связь, Программирование, Продвижение сайтов (SEO), Утилиты
У Вас отключен VIP статус, поэтому Вам показывается реклама на сайте. Вы можете поддержать наш ресурс и приобрести VIP статус, тем самым отключив показ рекламы на сайте, а ещё VIP пользователи получают возможность

смотреть аниме онлайн в HD качестве

(не распространяется на раздел Flarrow Films), а так же получить 5 инвайтов, которыми можно поделиться с друзьями или знакомыми.
Дешевый и быстрый Сидбокс

Ключи и пин-коды

Игры, Кредитные карты, IP-телефония, Интернет провайдеры, Мобильная связь, Спутниковое ТВ

Электронные книги

Бизнес и экономика, Дом, быт, семья, досуг, Санкт-Петербург, Компьютеры и интернет, Наука и образование, Техническая литература, Юридическая литература

Цифровые товары

iTunes & App Store, Базы данных, Дизайн, Доступ к ресурсам, Kарты продления, ключи, Фотографии, Шаблоны для сайтов

Программное обеспечение

Безопасность, Игры, PC, Интернет, Мобильная связь, Программирование, Продвижение сайтов (SEO), Утилиты
[Профиль] [ЛС]
Показать сообщения:    
Ответить на тему

Текущее время: 22-Янв 20:45

Часовой пояс: UTC + 4



Вы не можете начинать темы
Вы не можете отвечать на сообщения
Вы не можете редактировать свои сообщения
Вы не можете удалять свои сообщения
Вы не можете голосовать в опросах
Вы не можете прикреплять файлы к сообщениям
Вы можете скачивать файлы
Анализ сайта korsars.pro Яндекс.Метрика