Сага о Винланде / Vinland Saga [S01] (2019) BDRip от Deadmauvlad | Amber Studio, HDrezka Studio

Ответить на тему
Статистика раздачи [Обновить пиров]
Размер:  8,67 GB   |    Зарегистрирован:  10 месяцев 8 дней   |    .torrent скачан:  4 раза
Раздают:  3  [  0 KB/s  ]   Качают:  3  [  0 KB/s  ]   Подробная статистика пиров
 
   
 
 
Автор Сообщение

4udaki ®

Оффлайн

Медали


Пол: Мужской

Стаж: 6 лет 11 месяцев

Наличие запрета:

Сообщений: 11563

Откуда: korsars.pro

Отдача: 2 Mb/s

Загрузка: 20 Mb/s

Нажми


Скачать Adguard бесплатно

Создавать темы 05-Ноя-2019 21:00

[Цитировать]

Информация о фильме
Название: Сага о Винланде
Оригинальное название: Vinland Saga
Год выхода: 2019
Жанр: Приключения, драма, исторический, мультсериал
Режиссер: Сюхэй Ябута
В ролях: Шидзука Ишигами, Наойя Учида, Кеншо Оно, Акио Отцука, Мацуда Кеничиро, Хитоми Набатаме, Сатиши Нино, Хироки Ясумото
О фильме:
1013 год. Исландский юноша Торфинн — сын одного из величайших воинов викингов. И когда его отца убивает в схватке предводитель дружины Аскеладд, юноша становится на путь воина и отправляется мстить. Будучи гордым и не желая бесчестной схватки, он вступает в дружину Аскеладда с целью победить его в поединке, но в итоге судьба затягивает его в водоворот кровавых событий эпохи, ставка в которых — корона Англии.

Страна: Япония
Студия: Wit Studio
Продолжительность: 1 серия 00:28:00 23 серии x ~ 00:25:00
Перевод:
#1 Профессиональный многоголосый (закадровый) | HDrezka Studio
#2 Профессиональный многоголосый (закадровый) | Amber Studio
Файл
Кодек: AVI
Качество: BDRip
Видео: 720x400 (16:9), 23.976 fps, 1 518 kb/s (0.220 bit/pixel)
Аудио #1: AC3, 48,0 КГц, 2 ch, 192 Кбит/сек, CBR | | HDrezka Studio
Аудио #2: AC3, 48,0 КГц, 2 ch, 192 Кбит/сек, CBR | | Amber Studio
Аудио #3: AC3, 48,0 КГц, 2 ch, 192 Кбит/сек, CBR | | Japan (Оригинал)
Субтитры: Русские (Полный перевод); English (Full Sub)-

Список серий

01. Somewhere Not Here
02. Sword
03. Troll
04. A True Warrior
05. The Troll`s Son
06. The Journey Begins
07. Normanni
08. Beyond the Edge of the Sea
09. The Battle of London Bridge
10. Ragnarok
11. A Gamble
12. The Land on the Far Bank
13. Child of a Hero
14. The Light of Dawn
15. After Yule
16. History of Beasts
17. Servant
18. Out of the Cradle
19. United Front
20. Crown
21. Reunion
22. Lone Wolf
23. Miscalculation
24. End of the Prologue
-

MediaInfo

General
Complete name : [Deadmau- RAWS] Сага.о.Винланде.2019.S01.Rus.Jap.BDRip.Deadmauvlad.Ep.02.avi
Format : AVI
Format/Info : Audio Video Interleave
File size : 369 MiB
Duration : 24 min 26 s
Overall bit rate : 2 113 kb/s
Director : Encoder by Deadmauvlad
Writing application : VirtualDubMod 1.5.10.3 | www.virtualdub-fr.org || (build 2550/release)
Writing library : VirtualDubMod build 2550/release
Copyright : Encoder by Deadmauvlad
Video
ID : 0
Format : MPEG-4 Visual
Format profile : Advanced Simple@L5
Format settings : BVOP1 / Custom Matrix
Format settings, BVOP : 1
Format settings, QPel : No
Format settings, GMC : No warppoints
Format settings, Matrix : Custom
Codec ID : XVID
Codec ID/Hint : XviD
Duration : 24 min 26 s
Bit rate : 1 518 kb/s
Width : 720 pixels
Height : 400 pixels
Display aspect ratio : 16:9
Frame rate : 23.976 (24000/1001) FPS
Color space : YUV
Chroma subsampling : 4:2:0
Bit depth : 8 bits
Scan type : Progressive
Compression mode : Lossy
Bits/(Pixel*Frame) : 0.220
Stream size : 265 MiB (72%)
Writing library : XviD 73
Audio #1
ID : 1
Format : AC-3
Format/Info : Audio Coding 3
Commercial name : Dolby Digital
Codec ID : 2000
Duration : 24 min 26 s
Bit rate mode : Constant
Bit rate : 192 kb/s
Channel(s) : 2 channels
Channel layout : L R
Sampling rate : 48.0 kHz
Frame rate : 31.250 FPS (1536 SPF)
Bit depth : 16 bits
Compression mode : Lossy
Stream size : 33.6 MiB (9%)
Alignment : Split accross interleaves
Interleave, duration : 42 ms (1.00 video frame)
Interleave, preload duration : 500 ms
Audio #2
ID : 2
Format : AC-3
Format/Info : Audio Coding 3
Commercial name : Dolby Digital
Codec ID : 2000
Duration : 24 min 26 s
Bit rate mode : Constant
Bit rate : 192 kb/s
Channel(s) : 2 channels
Channel layout : L R
Sampling rate : 48.0 kHz
Frame rate : 31.250 FPS (1536 SPF)
Bit depth : 16 bits
Compression mode : Lossy
Stream size : 33.6 MiB (9%)
Alignment : Split accross interleaves
Interleave, duration : 42 ms (1.00 video frame)
Interleave, preload duration : 500 ms
Audio #3
ID : 3
Format : AC-3
Format/Info : Audio Coding 3
Commercial name : Dolby Digital
Codec ID : 2000
Duration : 24 min 26 s
Bit rate mode : Constant
Bit rate : 192 kb/s
Channel(s) : 2 channels
Channel layout : L R
Sampling rate : 48.0 kHz
Frame rate : 31.250 FPS (1536 SPF)
Bit depth : 16 bits
Compression mode : Lossy
Stream size : 33.6 MiB (9%)
Alignment : Split accross interleaves
Interleave, duration : 42 ms (1.00 video frame)
Interleave, preload duration : 500 ms
--
Озвучку Amber Studio, HDrezka Studio предоставил DS29028888
Исходник: Сага о Винланде / Vinland Saga BDRemux thx Mearas
* Релиз без какой-либо рекламы!
Релиз / Автор рипа: Deadmauvlad ^_^-
[korsars.pro].t23760.torrent 
Торрент: Зарегистрирован [ 2020-12-11 21:55 ] · 43C1381C8A9734821EB113EA0271E40279312C41

Скачать .torrent

Размер .torrent файла 32 KB

Статус: проверено
.torrent скачан: 4 раз
Размер: 8,67 GB
Правила
Похожие темы

Вы не зарегистрированы на нашем сайте. Вам доступна для скачивания только часть контента. Чтобы увидеть весь контент сайта, пожалуйста, зарегистрироруйтесь.

Дешевый и быстрый Сидбокс

Ключи и пин-коды

Игры, Кредитные карты, IP-телефония, Интернет провайдеры, Мобильная связь, Спутниковое ТВ

Электронные книги

Бизнес и экономика, Дом, быт, семья, досуг, Санкт-Петербург, Компьютеры и интернет, Наука и образование, Техническая литература, Юридическая литература

Цифровые товары

iTunes & App Store, Базы данных, Дизайн, Доступ к ресурсам, Kарты продления, ключи, Фотографии, Шаблоны для сайтов

Программное обеспечение

Безопасность, Игры, PC, Интернет, Мобильная связь, Программирование, Продвижение сайтов (SEO), Утилиты
У Вас отключен VIP статус, поэтому Вам показывается реклама на сайте. Вы можете поддержать наш ресурс и приобрести VIP статус, тем самым отключив показ рекламы на сайте, а ещё VIP пользователи получают возможность

смотреть аниме онлайн в HD качестве

(не распространяется на раздел Flarrow Films), а так же получить 5 инвайтов, которыми можно поделиться с друзьями или знакомыми.
Дешевый и быстрый Сидбокс

Ключи и пин-коды

Игры, Кредитные карты, IP-телефония, Интернет провайдеры, Мобильная связь, Спутниковое ТВ

Электронные книги

Бизнес и экономика, Дом, быт, семья, досуг, Санкт-Петербург, Компьютеры и интернет, Наука и образование, Техническая литература, Юридическая литература

Цифровые товары

iTunes & App Store, Базы данных, Дизайн, Доступ к ресурсам, Kарты продления, ключи, Фотографии, Шаблоны для сайтов

Программное обеспечение

Безопасность, Игры, PC, Интернет, Мобильная связь, Программирование, Продвижение сайтов (SEO), Утилиты


Последний раз редактировалось: 4udaki (2020-12-11 21:55), всего редактировалось 2 раз(а)
[Профиль] [ЛС]

Создавать темы 05-Ноя-2019 22:09 (спустя 1 час 9 минут)

Топик был перенесен из форума Американские в форум Аниме
Причина переноса: Правильный форум
4udaki
 

daryld

Оффлайн

Медали


Пол: Не указан

Стаж: 1 год

Наличие запрета:

Сообщений: 6

Отдача: не определено

Загрузка: не определено

Нажми


Скачать Adguard бесплатно

Создавать темы 11-Дек-2020 22:50 (спустя 1 год 1 месяц)

[Цитировать]

Аниме мощное, к сожалению всё самое интересное в этой истории на конце сезона заканчивается. Торкель шикарный персонаж.
[Профиль] [ЛС]
Показать сообщения:    
Ответить на тему

Текущее время: 20-Окт 11:04

Часовой пояс: UTC + 4



Вы не можете начинать темы
Вы не можете отвечать на сообщения
Вы не можете редактировать свои сообщения
Вы не можете удалять свои сообщения
Вы не можете голосовать в опросах
Вы не можете прикреплять файлы к сообщениям
Вы можете скачивать файлы
Анализ сайта korsars.pro Яндекс.Метрика