Перелом / Fractured (2019) WEBRip 1080p от KORSARS.INFO | Flarrow Films

Ответить на тему
Статистика раздачи [Обновить пиров]
Размер:  1,79 GB   |    Зарегистрирован:  1 год 4 месяца   |    .torrent скачан:  12 раз
Раздают:  569  [  0 KB/s  ]   Качают:  22  [  0 KB/s  ]   Подробная статистика пиров
 
   
 
 
Автор Сообщение

4udaki ®

Оффлайн

Медали


Пол: Мужской

Стаж: 6 лет 4 месяца

Наличие запрета:

Сообщений: 9100

Откуда: korsars.pro

Отдача: 2 Mb/s

Загрузка: 20 Mb/s

Нажми


Скачать Adguard бесплатно

Создавать темы 03-Ноя-2019 14:49

[Цитировать]

-Перелом / Fractured-Год выпуска: 2019
Страна:
США
Жанр: триллер, детектив
Продолжительность: 01:40:04
Перевод: Профессиональный (многоголосый, закадровый) | Flarrow Films
Субтитры: отсутствуют-В ролях: Сэм Уортингтон, Лили Рэйб, Люси Капри, Аджоа Андох, Стивен Тоболовски, Лорен Кокрейн, Шэйн Дин, Крис Сигурдсон, Чад Брюс, Гэбриел Дэниелс
Режиссёр: Брэд Андерсон-Рейтинг:
-Описание: Рэй с женой и маленькой дочерью едет на машине к родителям на День благодарения. На очередной остановке девочка, испугавшись собаки, неудачно пятится и падает с небольшой высоты. Рэй пытается поймать дочь, прыгает за ней и, приземлившись ниц, теряет сознание. Он приходит в себя от криков жены и, справившись с головокружением, спешно везёт дочь в больницу. После ожидания в очереди и скандала с регистратурой взволнованные родители добиваются осмотра врача, который рекомендует сделать МРТ. Отправив жену с дочерью на обследование, Рэй засыпает в кресле в фойе, а когда просыпается, выясняет, что жена и дочь бесследно исчезли — вместе с записью в журнале приёма.-Качество: WEBRip 1080p
Формат: MKV (MPEG-4 AVC)
Видео: 1920x1080, 2 260 kb/s, 24.000 FPS, 8 bits
Аудио RUS / ENG: AC-3, 320 kb/s, 2 channels, 48.0 kHz-

Скриншоты

-

MediaInfo

General
Unique ID : 273048077817929798823960310440099411072 (0xCD6B259D6185F06D505AEDB7E2757480)
Complete name : D:\Downloads\Movies\[KORSARS]_Fractured.2019..WEBRip1O8Op.Flarrow.Films.mkv
Format : Matroska
Format version : Version 4
File size : 1.79 GiB
Duration : 1 h 40 min
Overall bit rate mode : Variable
Overall bit rate : 2 567 kb/s
Movie name : CMRG
Encoded date : UTC 2019-10-29 17:05:20
Writing application : mkvmerge v32.0.0 ('Astral Progressions') 64-bit
Writing library : libebml v1.3.7 + libmatroska v1.5.0
Video
ID : 1
Format : AVC
Format/Info : Advanced Video Codec
Format profile : Main@L4
Format settings : CABAC / 3 Ref Frames
Format settings, CABAC : Yes
Format settings, Reference : 3 frames
Codec ID : V_MPEG4/ISO/AVC
Duration : 1 h 40 min
Bit rate mode : Variable
Bit rate : 2 260 kb/s
Maximum bit rate : 3 390 kb/s
Width : 1 920 pixels
Height : 1 080 pixels
Display aspect ratio : 16:9
Frame rate mode : Constant
Frame rate : 24.000 FPS
Color space : YUV
Chroma subsampling : 4:2:0
Bit depth : 8 bits
Scan type : Progressive
Bits/(Pixel*Frame) : 0.045
Stream size : 1.57 GiB (87%)
Writing library : x264 core 148 r2715 7e75228
Encoding settings : cabac=1 / ref=3 / deblock=1:0:0 / analyse=0x1:0x111 / me=umh / subme=10 / psy=1 / psy_rd=1.00:0.00 / mixed_ref=1 / me_range=24 / chroma_me=1 / trellis=2 / 8x8dct=0 / cqm=0 / deadzone=21,11 / fast_pskip=1 / chroma_qp_offset=-2 / threads=8 / lookahead_threads=1 / sliced_threads=0 / nr=0 / decimate=1 / interlaced=0 / bluray_compat=0 / stitchable=1 / constrained_intra=0 / bframes=2 / b_pyramid=0 / b_adapt=2 / b_bias=0 / direct=3 / weightb=1 / open_gop=0 / weightp=2 / keyint=250 / keyint_min=24 / scenecut=0 / intra_refresh=0 / rc_lookahead=48 / rc=2pass / mbtree=1 / bitrate=2260 / ratetol=1.0 / qcomp=0.50 / qpmin=6 / qpmax=51 / qpstep=4 / cplxblur=20.0 / qblur=0.5 / vbv_maxrate=3390 / vbv_bufsize=4520 / nal_hrd=vbr / filler=0 / ip_ratio=1.40 / aq=1:1.00
Default : Yes
Forced : No
Audio
ID : 2
Format : AC-3
Format/Info : Audio Coding 3
Commercial name : Dolby Digital
Codec ID : A_AC3
Duration : 1 h 40 min
Bit rate mode : Constant
Bit rate : 320 kb/s
Channel(s) : 2 channels
Channel layout : L R
Sampling rate : 48.0 kHz
Frame rate : 31.250 FPS (1536 SPF)
Compression mode : Lossy
Stream size : 229 MiB (12%)
Service kind : Complete Main
Default : Yes
Forced : No
-

[korsars.pro].t23690.torrent 
Торрент: Зарегистрирован [ 2019-11-03 14:49 ] · D9821DF20D809972E02684932F226343378B69D6

Скачать .torrent

Размер .torrent файла 19 KB

Статус: проверено
.torrent скачан: 12 раз
Размер: 1,79 GB
Правила
Похожие темы

Вы не зарегистрированы на нашем сайте. Вам доступна для скачивания только часть контента. Чтобы увидеть весь контент сайта, пожалуйста, зарегистрироруйтесь.

У Вас отключен VIP статус, поэтому Вам показывается реклама на сайте. Вы можете поддержать наш ресурс и приобрести VIP статус, тем самым отключив показ рекламы на сайте, а ещё VIP пользователи получают возможность

смотреть фильмы, сериалы и аниме онлайн в HD качестве

(не распространяется на раздел Flarrow Films), а так же получить 5 инвайтов, которыми можно поделиться с друзьями или знакомыми.
[Профиль] [ЛС]
Показать сообщения:    
Ответить на тему

Текущее время: 07-Мар 18:32

Часовой пояс: UTC + 4



Вы не можете начинать темы
Вы не можете отвечать на сообщения
Вы не можете редактировать свои сообщения
Вы не можете удалять свои сообщения
Вы не можете голосовать в опросах
Вы не можете прикреплять файлы к сообщениям
Вы можете скачивать файлы
Анализ сайта korsars.pro Яндекс.Метрика