Нашествие Бродячих Кошек! / Mayoi Neko Overrun! [S01 + Спешлы] (2010) BDRip от Deadmauvlad | L2 | Sovetromantica

Ответить на тему
Статистика раздачи [Обновить пиров]
Размер:  4,38 GB   |    Зарегистрирован:  1 год 11 месяцев   |    .torrent скачан:  9 раз

Полного источника не было: Никогда

Качают:  2  [  0 KB/s  ]   Подробная статистика пиров
 
   
 
 
 
Автор Сообщение

4udaki ®

Оффлайн

Медали


Пол: Мужской

Стаж: 6 лет 11 месяцев

Наличие запрета:

Сообщений: 11563

Откуда: korsars.pro

Отдача: 2 Mb/s

Загрузка: 20 Mb/s

Нажми


Скачать Adguard бесплатно

Создавать темы 03-Ноя-2019 05:00

[Цитировать]

Информация о аниме
Название: Нашествие бродячих кошек!
Оригинальное название: Mayoi Neko Overrun!
Год выхода: 2010
Жанр: комедия, повседневность, романтика, этти
Режиссер: Мацу Томохиро
В ролях: Сатоми Араи, Юи Хориэ, Юка Игути, Ито Канаэ, Дзюндзи Мадзима, Нобухико Окамото, Сатоми Сато, Рина Сато, Аяна Такэтацу, Хироюки Ёсино
Описание:
Легкая и простая романтическая комедия. Старшеклассник Такуми Сузуки работает в кафе "Бродячие кошки" вместе со своей опекуншей, девушкой, взявшей Такуми под свое крыло - Отоме. Отоме - очень добрый и отзывчивый человек, заботящаяся о каждом, кто нуждается в помощи. Однажды она приводит в кафе беглянку по имени Кирия Нозоми. Кирия умна, красива, но не имеет представления о вещах, которые для других людей кажется простыми.

Страна: Япония
Студия: AIC
Продолжительность: 12х~ 00:25:00 + 6х ~00:03:00
Перевод: Любительский (Двухголосый закадровый) Sakura & Krondir
Озвучивание: MiraiDuB & Sovetromantica
русские субтитры : Dreamers Team (TV) (01-12)
русские субтитры : Drei & antiBILLotic (Specials)
Файл
Формат / Кодек: AVI/XviD
Качество: BDRip [Исходник Mayoi Neko Overrun! BDRemux 1080p by antiBILLotic]
Видео: 720x400 (16:9), 23.976 fps, 1604 Кбит/сек (0.232 bit/pixel)
Аудио #1: AC3, 192 Kbps, 48.0 KHz, 2 ch | | Озвучка от MiraiDuB & Sovetromantica]
Аудио #2: AC3, 192 Kbps, 48.0 KHz, 2 ch | | Оригинал--

MediaInfo

Общее
Полное имя : Нашествие.Бродячих.Кошек.2010.L.BDRip.Deadmauvlad.S01Nashestvie.Brodya4ih.Ko6ek.2010.L.BDRip.Deadmauvlad.S01x01.avi
Формат : AVI
Формат/Информация : Audio Video Interleave
Размер файла : 350 Мбайт
Продолжительность : 24 м. 28 с.
Общий поток : 2002 Кбит/сек
Название фильма : Nashestvie.Brodya4ih.Ko6ek.2010.L.BDRip.Deadmauvlad.S01x01
Режиссёр : Encoder by Deadmauvlad
Жанр : романтика, этти
Программа кодирования : VirtualDubMod 1.5.10.3 | www.virtualdub-fr.org || (build 2550/release)
Формат оригинала/Имя : Anime
Авторское право : Encoder by Deadmauvlad
Примечание : Encoder by Deadmauvlad
Видео
Идентификатор : 0
Формат : MPEG-4 Visual
Профиль формата : Advanced Simple@L5
Настройки формата : BVOP1 / Custom Matrix
Параметр BVOP формата : 1
Параметр QPel формата : Нет
Параметр GMC формата : Без точки перехода
Параметр матрицы формата : Выборочная
Идентификатор кодека : XVID
Идентификатор кодека/Подсказка : XviD
Продолжительность : 24 м. 28 с.
Битрейт : 1604 Кбит/сек
Ширина : 720 пикселей
Высота : 400 пикселей
Соотношение сторон : 16:9
Частота кадров : 23,976 (24000/1001) кадра/сек
Цветовое пространство : YUV
Субдискретизация насыщенности : 4:2:0
Битовая глубина : 8 бит
Тип развёртки : Прогрессивная
Метод сжатия : С потерями
Бит/(Пиксели*Кадры) : 0.232
Размер потока : 281 Мбайт (80%)
Библиотека кодирования : XviD 73
Аудио #1
Идентификатор : 1
Формат : AC-3
Формат/Информация : Audio Coding 3
Коммерческое название : Dolby Digital
Идентификатор кодека : 2000
Продолжительность : 24 м. 28 с.
Вид битрейта : Постоянный
Битрейт : 192 Кбит/сек
Каналы : 2 канала
Channel layout : L R
Частота : 48,0 КГц
Частота кадров : 31,250 кадров/сек (1536 SPF)
Битовая глубина : 16 бит
Метод сжатия : С потерями
Размер потока : 33,6 Мбайт (10%)
Выравнивание : Разделение по промежуткам
Продолжительность промежутка : 42 мс. (1,00 видеокадр)
Время предзагрузки промежутка : 500 мс.
Аудио #2
Идентификатор : 2
Формат : AC-3
Формат/Информация : Audio Coding 3
Коммерческое название : Dolby Digital
Идентификатор кодека : 2000
Продолжительность : 24 м. 28 с.
Вид битрейта : Постоянный
Битрейт : 192 Кбит/сек
Каналы : 2 канала
Channel layout : L R
Частота : 48,0 КГц
Частота кадров : 31,250 кадров/сек (1536 SPF)
Битовая глубина : 16 бит
Метод сжатия : С потерями
Размер потока : 33,6 Мбайт (10%)
Выравнивание : Разделение по промежуткам
Продолжительность промежутка : 42 мс. (1,00 видеокадр)
Время предзагрузки промежутка : 500 мс.
-

Список Серий

01. The Stray Cat Ran Away
02. The Stray Cat Smiled
03. The Stray Cat is Found
04. The Stray Cat Stripped
05. The Stray Cat Cried
06. The Stray Cat is Troubled
07. The Stray Cats Rode
08. The Stray Cat Has Pulled Out
09. The Stray Cat Swam
10. The Stray Cat Took It Away
11. The Stray Cats Fell Apart
12. The Stray Cat Decided
S1. Stray Cats Theater 1
S2. Stray Cats Theater 2
S3. Stray Cats Theater 3
S4. Stray Cats Theater 4
S5. Stray Cats Theater 5
S6. Stray Cats Theater 6
-

Скриншоты

-ЦитатаКто-то писал:Сведение озвучки под Blu-ray by Deadmauvlad-Релиз Без Рекламы √
[korsars.pro].t23678.torrent 
Торрент: Зарегистрирован [ 2019-11-03 05:00 ] · 7630481BD5C4719EF31944166E21B91308764A11

Скачать .torrent

Размер .torrent файла 10 KB

Статус: проверено
.torrent скачан: 9 раз
Размер: 4,38 GB
Правила
Похожие темы

Вы не зарегистрированы на нашем сайте. Вам доступна для скачивания только часть контента. Чтобы увидеть весь контент сайта, пожалуйста, зарегистрироруйтесь.

Дешевый и быстрый Сидбокс

Ключи и пин-коды

Игры, Кредитные карты, IP-телефония, Интернет провайдеры, Мобильная связь, Спутниковое ТВ

Электронные книги

Бизнес и экономика, Дом, быт, семья, досуг, Санкт-Петербург, Компьютеры и интернет, Наука и образование, Техническая литература, Юридическая литература

Цифровые товары

iTunes & App Store, Базы данных, Дизайн, Доступ к ресурсам, Kарты продления, ключи, Фотографии, Шаблоны для сайтов

Программное обеспечение

Безопасность, Игры, PC, Интернет, Мобильная связь, Программирование, Продвижение сайтов (SEO), Утилиты
У Вас отключен VIP статус, поэтому Вам показывается реклама на сайте. Вы можете поддержать наш ресурс и приобрести VIP статус, тем самым отключив показ рекламы на сайте, а ещё VIP пользователи получают возможность

смотреть аниме онлайн в HD качестве

(не распространяется на раздел Flarrow Films), а так же получить 5 инвайтов, которыми можно поделиться с друзьями или знакомыми.
Дешевый и быстрый Сидбокс

Ключи и пин-коды

Игры, Кредитные карты, IP-телефония, Интернет провайдеры, Мобильная связь, Спутниковое ТВ

Электронные книги

Бизнес и экономика, Дом, быт, семья, досуг, Санкт-Петербург, Компьютеры и интернет, Наука и образование, Техническая литература, Юридическая литература

Цифровые товары

iTunes & App Store, Базы данных, Дизайн, Доступ к ресурсам, Kарты продления, ключи, Фотографии, Шаблоны для сайтов

Программное обеспечение

Безопасность, Игры, PC, Интернет, Мобильная связь, Программирование, Продвижение сайтов (SEO), Утилиты
[Профиль] [ЛС]
Показать сообщения:    
Ответить на тему

Текущее время: 20-Окт 11:25

Часовой пояс: UTC + 4



Вы не можете начинать темы
Вы не можете отвечать на сообщения
Вы не можете редактировать свои сообщения
Вы не можете удалять свои сообщения
Вы не можете голосовать в опросах
Вы не можете прикреплять файлы к сообщениям
Вы можете скачивать файлы
Анализ сайта korsars.pro Яндекс.Метрика