Планета короля зверей / Jyu oh sei [S01] (2006) WEB-DLRip от Deadmauvlad | D | Телеканал FAN

Ответить на тему
Статистика раздачи [Обновить пиров]
Размер:  3,72 GB   |    Зарегистрирован:  2 года 2 месяца   |    .torrent скачан:  11 раз
Раздают:  4  [  0 KB/s  ]   Качают:  4  [  0 KB/s  ]   Подробная статистика пиров
 
   
 
 
Автор Сообщение

4udaki ®

Оффлайн

Медали


Пол: Мужской

Стаж: 7 лет 2 месяца

Наличие запрета:

Сообщений: 13820

Откуда: korsars.pro

Отдача: 2 Mb/s

Загрузка: 20 Mb/s

Нажми


Скачать Adguard бесплатно

Создавать темы 31-Окт-2019 13:00

[Цитировать]

Информация о фильме
Название: Планета короля зверей
Оригинальное название: Jyu oh sei
Год выхода: 2006
Жанр: Экшен, Фантастика, Драма, Детектив, Приключения, Сёдзё
Режиссер: Хироси Нисикиори
В ролях: Нана Мидзуки, Дункан Брэннан, Сюн Огури, Акимицу Такасэ, Кристофер Бевинс, Рика Фуками, Кадзуя Накаи, Эрик Вейл, Кларин Харп, Коити Домото
О фильме:
Тор и его брат-близнец Рай были заброшены на забытую планету неизвестными в масках после того, как братья стали свидетелями смерти своих родителей. Имея на руках только необычный нож и зловонный мешочек, они отправляются на поиски цивилизации. Вскоре они выясняют, что растения на этой планете имеют преимущество перед животными. Только отдав всё, чтобы выжить, отбросив свою человечность и превратившись в зверя, каким был когда-то человек, можно будет выжить на этой жестокой планете...

Страна: Япония
Студия: Bones
Продолжительность: 11х~00:25:00
Перевод: Профессиональный Дублированный (СВ-Дубль по заказу Медиа Фильм в 2019 году)
Файл
Кодек: XviD
Качество: WEB-DLRip [WEB-DL 1080i by U3-Web thx p1zrv]
Видео: XviD, 704x400 (16:9), 23.976 fps, 1695 Кбит/сек (0.251 bit/pixel)
Звук:
Аудио #1: (RUS) AC-3, 48,0 КГц, 2 ch, 192 Кбит/сек, CBR [Дубляж]
Аудио #2:(JAP) AC-3, 48,0 КГц, 2 ch, 192 Кбит/сек, CBR [Оригинал]
Субтитры: Отсутствуют

MediaInfo

Общее
Полное имя : Планета.Короля.Зверей.S01.2006.RUS.JAP.WEB-DLRip.Deadmauvlad/ Planeta.Korolya.Zverej.S01.2006.RUS.JAP.WEB-DLRip.Deadmauvlad.Ep.01.avi
Формат : AVI
Формат/Информация : Audio Video Interleave
Размер файла : 346 Мбайт
Продолжительность : 23 м. 8 с.
Общий поток : 2094 Кбит/сек
Название фильма : Planeta.Korolya.Zverej.S01.2006.RUS.JAP.WEB-DLRip.Deadmauvlad.Ep.01
Режиссёр : Encoder by Deadmauvlad
Жанр : приключения, фантастика
Программа кодирования : VirtualDubMod 1.5.10.3 | www.virtualdub-fr.org || (build 2550/release)
Формат оригинала/Имя : Anime
Авторское право : Encoder by Deadmauvlad
Примечание : Encoder by Deadmauvlad
Видео
Идентификатор : 0
Формат : MPEG-4 Visual
Профиль формата : Advanced Simple@L5
Настройки формата : BVOP1 / Custom Matrix
Параметр BVOP формата : 1
Параметр QPel формата : Нет
Параметр GMC формата : Без точки перехода
Параметр матрицы формата : Выборочная
Идентификатор кодека : XVID
Идентификатор кодека/Подсказка : XviD
Продолжительность : 23 м. 8 с.
Битрейт : 1696 Кбит/сек
Ширина : 704 пикселя
Высота : 400 пикселей
Соотношение сторон : 16:9
Частота кадров : 23,976 (24000/1001) кадра/сек
Цветовое пространство : YUV
Субдискретизация насыщенности : 4:2:0
Битовая глубина : 8 бит
Тип развёртки : Прогрессивная
Метод сжатия : С потерями
Бит/(Пиксели*Кадры) : 0.251
Размер потока : 281 Мбайт (81%)
Библиотека кодирования : XviD 73
Аудио #1
Идентификатор : 1
Формат : AC-3
Формат/Информация : Audio Coding 3
Коммерческое название : Dolby Digital
Идентификатор кодека : 2000
Продолжительность : 23 м. 8 с.
Вид битрейта : Постоянный
Битрейт : 192 Кбит/сек
Каналы : 2 канала
Channel layout : L R
Частота : 48,0 КГц
Частота кадров : 31,250 кадров/сек (1536 SPF)
Битовая глубина : 16 бит
Метод сжатия : С потерями
Размер потока : 31,8 Мбайт (9%)
Выравнивание : Разделение по промежуткам
Продолжительность промежутка : 42 мс. (1,00 видеокадр)
Время предзагрузки промежутка : 500 мс.
Аудио #2
Идентификатор : 2
Формат : AC-3
Формат/Информация : Audio Coding 3
Коммерческое название : Dolby Digital
Идентификатор кодека : 2000
Продолжительность : 23 м. 8 с.
Вид битрейта : Постоянный
Битрейт : 192 Кбит/сек
Каналы : 2 канала
Channel layout : L R
Частота : 48,0 КГц
Частота кадров : 31,250 кадров/сек (1536 SPF)
Битовая глубина : 16 бит
Метод сжатия : С потерями
Размер потока : 31,8 Мбайт (9%)
Выравнивание : Разделение по промежуткам
Продолжительность промежутка : 42 мс. (1,00 видеокадр)
Время предзагрузки промежутка : 500 мс.

Список эпизодов

01. Fate
02. Ochre Ring
03. Ally
04. Challenge
05. Duel
06. Blanc Ro
07. Independence
08. The Depths
09. Beast King
10. Nightmare
11. Hope
-

Скриншоты

Благодарности

ЦитатаКто-то писал:1. Исходные записи предоставил Peter Rodgers
2.Спасибо большое p1zrv за исходный WEB-DL 1080
Релиз/автор рипов by Deadmauvlad
[korsars.pro].t23571.torrent 
Торрент: Зарегистрирован [ 2019-10-31 13:00 ] · 4C3E73618D3873DB4D327A27E4AF0DBEFC9D4E2E

Скачать .torrent

Размер .torrent файла 7 KB

Статус: проверено
.torrent скачан: 11 раз
Размер: 3,72 GB
Правила
Похожие темы

Вы не зарегистрированы на нашем сайте. Вам доступна для скачивания только часть контента. Чтобы увидеть весь контент сайта, пожалуйста, зарегистрироруйтесь.

Дешевый и быстрый Сидбокс

Ключи и пин-коды

Игры, Кредитные карты, IP-телефония, Интернет провайдеры, Мобильная связь, Спутниковое ТВ

Электронные книги

Бизнес и экономика, Дом, быт, семья, досуг, Санкт-Петербург, Компьютеры и интернет, Наука и образование, Техническая литература, Юридическая литература

Цифровые товары

iTunes & App Store, Базы данных, Дизайн, Доступ к ресурсам, Kарты продления, ключи, Фотографии, Шаблоны для сайтов

Программное обеспечение

Безопасность, Игры, PC, Интернет, Мобильная связь, Программирование, Продвижение сайтов (SEO), Утилиты
У Вас отключен VIP статус, поэтому Вам показывается реклама на сайте. Вы можете поддержать наш ресурс и приобрести VIP статус, тем самым отключив показ рекламы на сайте, а ещё VIP пользователи получают возможность

смотреть аниме онлайн в HD качестве

(не распространяется на раздел Flarrow Films), а так же получить 5 инвайтов, которыми можно поделиться с друзьями или знакомыми.
Дешевый и быстрый Сидбокс

Ключи и пин-коды

Игры, Кредитные карты, IP-телефония, Интернет провайдеры, Мобильная связь, Спутниковое ТВ

Электронные книги

Бизнес и экономика, Дом, быт, семья, досуг, Санкт-Петербург, Компьютеры и интернет, Наука и образование, Техническая литература, Юридическая литература

Цифровые товары

iTunes & App Store, Базы данных, Дизайн, Доступ к ресурсам, Kарты продления, ключи, Фотографии, Шаблоны для сайтов

Программное обеспечение

Безопасность, Игры, PC, Интернет, Мобильная связь, Программирование, Продвижение сайтов (SEO), Утилиты
[Профиль] [ЛС]
Показать сообщения:    
Ответить на тему

Текущее время: 22-Янв 22:25

Часовой пояс: UTC + 4



Вы не можете начинать темы
Вы не можете отвечать на сообщения
Вы не можете редактировать свои сообщения
Вы не можете удалять свои сообщения
Вы не можете голосовать в опросах
Вы не можете прикреплять файлы к сообщениям
Вы можете скачивать файлы
Анализ сайта korsars.pro Яндекс.Метрика