Выдающиеся звери / Beastars [01x01-03 из 12] (2019) HDTVRip 720p | Persona99

Ответить на тему
Статистика раздачи [Обновить пиров]
Размер:  1,06 GB   |    Зарегистрирован:  1 год 11 месяцев   |    .torrent скачан:  5 раз

Полного источника не было: 1 год 7 месяцев

Качают:  2  [  0 KB/s  ]   Подробная статистика пиров
 
   
 
 
 
Автор Сообщение

4udaki ®

Онлайн

Медали


Пол: Мужской

Стаж: 6 лет 11 месяцев

Наличие запрета:

Сообщений: 11569

Откуда: korsars.pro

Отдача: 2 Mb/s

Загрузка: 20 Mb/s

Нажми


Скачать Adguard бесплатно

Создавать темы 31-Окт-2019 01:00

[Цитировать]

Информация о фильме
Название: Выдающиеся звери
Оригинальное название: Beastars
Год выхода: 2019
Жанр: драма, психология, повседневность, комедия
Режиссер: Мацуми Синъити
О фильме:
В мире, населенном антропоморфными зверьми, травоядные и хищники живут бок о бок. Для учеников черритонской школы жизнь наполнена надеждой, романтикой, недоверием и беспокойством. Главный герой —волк Легоси, член театрального клуба. Несмотря на грозный вид, внутри он мягкий и добрый. На протяжении всей жизни его всегда боялись и ненавидели другие звери, но он к этому привык. Постепенно он становится более открытым к своим одноклассникам, помогая им, как вдруг школу настигает ужасное происшествие...
Страна: Япония
Студия: Orange
Продолжительность: ТВ (>11 эп.) 00:23:00
Перевод: Любительский одноголосый (Persona99)
Файл
Формат видео: MKV
Качество: HDTVRip
Видео: AVC, 1280x720, 23.976 fps, ~1780 Kbps, 8 bits
Звук:
Аудио 1: AC3 , 192 kb/s, 48.0 KHz, 2 ch - любительский одноголосый
Аудио 2: AC3 , 192 kb/s, 48.0 KHz, 2 ch -оригинал (Японский)
Субтитры: русские (встроенные)
Семпл

Подробные тех. данные

General
Unique ID : 230765700922228478415500423916848590453 (0xAD9BDB7B9355BC77A5616260A6BAAE75)
Complete name : _EBeastarsBeastars - 01 [Persona99.GSG][720p].rus.jpn.mkv
Format : Matroska
Format version : Version 2
File size : 344 MiB
Duration : 22mn 57s
Overall bit rate mode : Variable
Overall bit rate : 2 093 Kbps
Encoded date : UTC 2019-10-10 17:07:13
Writing application : mkvmerge v4.0.0 ('The Stars were mine') built on Jun 6 2010 16:18:42
Writing library : libebml v1.0.0 + libmatroska v1.0.0
DURATION : 00:22:57.056000000
NUMBER_OF_FRAMES : 43033
NUMBER_OF_BYTES : 22032896
_STATISTICS_WRITING_APP : mkvmerge v34.0.0 ('Sight and Seen') 64-bit
_STATISTICS_WRITING_DATE_UTC : 2019-10-08 08:42:00
_STATISTICS_TAGS : BPS DURATION NUMBER_OF_FRAMES NUMBER_OF_BYTES
Video
ID : 1
Format : AVC
Format/Info : Advanced Video Codec
Format profile : Main@L3.1
Format settings, CABAC : Yes
Format settings, ReFrames : 3 frames
Codec ID : V_MPEG4/ISO/AVC
Duration : 22mn 57s
Bit rate mode : Variable
Bit rate : 1 780 Kbps
Maximum bit rate : 2 670 Kbps
Width : 1 280 pixels
Height : 720 pixels
Display aspect ratio : 16:9
Frame rate mode : Constant
Frame rate : 23.976 fps
Color space : YUV
Chroma subsampling : 4:2:0
Bit depth : 8 bits
Scan type : Progressive
Bits/(Pixel*Frame) : 0.081
Stream size : 284 MiB (83%)
Writing library : x264 core 148 r2715 7e75228
Encoding settings : cabac=1 / ref=3 / deblock=1:0:0 / analyse=0x1:0x111 / me=umh / subme=10 / psy=1 / psy_rd=1.00:0.00 / mixed_ref=1 / me_range=24 / chroma_me=1 / trellis=2 / 8x8dct=0 / cqm=0 / deadzone=21,11 / fast_pskip=1 / chroma_qp_offset=-2 / threads=8 / lookahead_threads=1 / sliced_threads=0 / nr=0 / decimate=1 / interlaced=0 / bluray_compat=0 / stitchable=1 / constrained_intra=0 / bframes=2 / b_pyramid=0 / b_adapt=2 / b_bias=0 / direct=3 / weightb=1 / open_gop=0 / weightp=2 / keyint=250 / keyint_min=23 / scenecut=0 / intra_refresh=0 / rc_lookahead=48 / rc=2pass / mbtree=1 / bitrate=1780 / ratetol=1.0 / qcomp=0.50 / qpmin=6 / qpmax=51 / qpstep=4 / cplxblur=20.0 / qblur=0.5 / vbv_maxrate=2670 / vbv_bufsize=3560 / nal_hrd=vbr / filler=0 / ip_ratio=1.40 / aq=1:1.00
Language : Japanese
Default : No
Forced : No
Audio #1
ID : 2
Format : AC-3
Format/Info : Audio Coding 3
Mode extension : CM (complete main)
Format settings, Endianness : Big
Codec ID : A_AC3
Duration : 22mn 57s
Bit rate mode : Constant
Bit rate : 192 Kbps
Channel(s) : 2 channels
Channel positions : Front: L R
Sampling rate : 48.0 KHz
Compression mode : Lossy
Stream size : 31.5 MiB (9%)
Title : Persona99
Language : Russian
Default : Yes
Forced : No
Audio #2
ID : 3
Format : E-AC-3
Format/Info : Audio Coding 3
Format settings, Endianness : Big
Codec ID : A_EAC3
Duration : 22mn 57s
Bit rate mode : Constant
Bit rate : 128 Kbps
Channel(s) : 2 channels
Channel positions : Front: L R
Sampling rate : 48.0 KHz
Compression mode : Lossy
Delay relative to video : 32ms
Stream size : 21.0 MiB (6%)
Language : Japanese
Default : No
Forced : No
Text
ID : 4
Format : ASS
Codec ID : S_TEXT/ASS
Codec ID/Info : Advanced Sub Station Alpha
Compression mode : Lossless
Language : Russian
Default : No
Forced : No

Список эпизодов

01. Episode 1
02. Episode 2
03. Episode 3

Скриншоты

[korsars.pro].t23555.torrent 
Торрент: Зарегистрирован [ 2019-10-31 01:00 ] · FFA3801FF824F853FF5E47AB3DF6058BB6FD62A0

Скачать .torrent

Размер .torrent файла 13 KB

Статус: проверено
.torrent скачан: 5 раз
Размер: 1,06 GB
Правила
Похожие темы

Вы не зарегистрированы на нашем сайте. Вам доступна для скачивания только часть контента. Чтобы увидеть весь контент сайта, пожалуйста, зарегистрироруйтесь.

Дешевый и быстрый Сидбокс

Ключи и пин-коды

Игры, Кредитные карты, IP-телефония, Интернет провайдеры, Мобильная связь, Спутниковое ТВ

Электронные книги

Бизнес и экономика, Дом, быт, семья, досуг, Санкт-Петербург, Компьютеры и интернет, Наука и образование, Техническая литература, Юридическая литература

Цифровые товары

iTunes & App Store, Базы данных, Дизайн, Доступ к ресурсам, Kарты продления, ключи, Фотографии, Шаблоны для сайтов

Программное обеспечение

Безопасность, Игры, PC, Интернет, Мобильная связь, Программирование, Продвижение сайтов (SEO), Утилиты
У Вас отключен VIP статус, поэтому Вам показывается реклама на сайте. Вы можете поддержать наш ресурс и приобрести VIP статус, тем самым отключив показ рекламы на сайте, а ещё VIP пользователи получают возможность

смотреть аниме онлайн в HD качестве

(не распространяется на раздел Flarrow Films), а так же получить 5 инвайтов, которыми можно поделиться с друзьями или знакомыми.
Дешевый и быстрый Сидбокс

Ключи и пин-коды

Игры, Кредитные карты, IP-телефония, Интернет провайдеры, Мобильная связь, Спутниковое ТВ

Электронные книги

Бизнес и экономика, Дом, быт, семья, досуг, Санкт-Петербург, Компьютеры и интернет, Наука и образование, Техническая литература, Юридическая литература

Цифровые товары

iTunes & App Store, Базы данных, Дизайн, Доступ к ресурсам, Kарты продления, ключи, Фотографии, Шаблоны для сайтов

Программное обеспечение

Безопасность, Игры, PC, Интернет, Мобильная связь, Программирование, Продвижение сайтов (SEO), Утилиты
[Профиль] [ЛС]
Показать сообщения:    
Ответить на тему

Текущее время: 22-Окт 23:34

Часовой пояс: UTC + 4



Вы не можете начинать темы
Вы не можете отвечать на сообщения
Вы не можете редактировать свои сообщения
Вы не можете удалять свои сообщения
Вы не можете голосовать в опросах
Вы не можете прикреплять файлы к сообщениям
Вы можете скачивать файлы
Анализ сайта korsars.pro Яндекс.Метрика