Кошечка из Сакурасо / Sakurasou no Pet na Kanojo [S01] (2012-2013) BDRip от Deadmauvlad | L2 | Anilibria

Ответить на тему
Статистика раздачи [Обновить пиров]
Размер:  8,07 GB   |    Зарегистрирован:  1 год 11 месяцев   |    .torrent скачан:  9 раз
Раздают:  6  [  0 KB/s  ]   Качают:  9  [  0 KB/s  ]   Подробная статистика пиров
 
   
 
 
Автор Сообщение

4udaki ®

Оффлайн

Медали


Пол: Мужской

Стаж: 6 лет 11 месяцев

Наличие запрета:

Сообщений: 11587

Откуда: korsars.pro

Отдача: 2 Mb/s

Загрузка: 20 Mb/s

Нажми


Скачать Adguard бесплатно

Создавать темы 28-Окт-2019 13:00

[Цитировать]

Год: 2012-2013
Жанр: драма, комедия, повседневность, романтика, школа, этти
Выпуск: с 9 октября 2012 по 26 марта 2013
Трансляция: вторник в 00:30 [ночной сеанс] на Tokyo MX TV
Режиссер: Ацуко Исидзука, Такаси Икэхата, Дайсукэ Такасима
Автор оригинала: Камосида Хадзимэ
В главных ролях: Ёсицугу Мацуока, Аи Каяно, Марико Накатсу, Нацуми Такамори, Такахиро Сакурай, Юи Хориэ, Мэгуми Тоёгути, Аяко Кавасуми, Таиси Мурата, Синтаро Асанума-Описание: В старшей школе искусств университета Суймэй есть множество общежитий, а есть доходный дом «Сакура». Если в общежитиях действуют строгие правила, то в «Сакуре» можно все, недаром ее местное прозвище – «сумасшедший дом». Так как в искусстве гений и сумасшествие всегда где-то рядом, то обитатели «вишневого сада» - талантливые и интересные ребята, слишком уж выбивающиеся из «болота». Взять хотя бы шумную Мисаки, что продает мейджор-студиям собственное аниме, ее друга и сценариста плейбоя Дзина или программиста-затворника Рюносукэ, что общается с миром лишь по Сети и телефону. По сравнению с ними главный герой Сората Канда – простак, попавший в «психушку» всего лишь за… любовь к кошкам!-Поэтому Тихиро-сэнсэй, глава общежития, поручила Сорате, как единственному вменяемому постояльцу, встретить свою двоюродную сестру Масиро, что переводится в их школу из далекой Британии. Хрупкая блондинка показалась Канде настоящим светлым ангелом. Правда, на вечеринке с новыми соседями гостья держалась скованно и говорила мало, но свежеиспеченный поклонник списал все на понятный стресс и усталость с дороги. Только настоящий стресс ждал Сорату утром, когда он пошел будить Масиро. Герой с ужасом понял, что его новая знакомая – великий художник абсолютно не от мира сего, то есть, самостоятельно даже одеться не способна! А коварная Тихиро тут как тут - отныне Канда будет вечно ухаживать за ее сестрой, ведь на кошках парень уже потренировался!-
Студия: J.C. Staff
Страна: Япония
Продолжительность: 24 х ~ 00:24:00
Перевод: Любительский (двухголосый) Zendos & Eladiel [Anilibria]-Файл
Кодек: XviD
Качество: BDRip [Исходник: BDRemux 1080p by oleg_aka_djmeg]
Видео: 704x400 (16:9), 23.976 fps, 1653 Кбит/сек (0.245 bit/pixel)
Аудио №1: AC-3, 48,0 КГц, 2 ch, 192 Кбит/сек, CBR | | Anilibria
Аудио №2: AC-3, 48,0 КГц, 2 ch, 192 /сек, CBR | | Japan (Оригинал)
Субтитры: Русские (полные/ надписи)-

Примечание об аниме

Дословно название сериала значит «Девушка-домашний питомец из дома «Сакура». В духе жанра большинство имен героев – говорящие. Так, блондинка Масиро и есть «белоснежная», а фамилия пока что не нашедшего себя главного героя Канды значит «великая пустота».
-

Эпизоды

01. Кошка. Белизна. Маширо.
02. Я рисовала картины
03. Так близко и так далеко
04. Мир меняющий цвет
05. Серьезная девушка из Сакурасо
06. Синева неба после дождя
07. Она нападает...
08. Давай устроим большой фейерверк
09. Начинается осенняя буря
10. Ненавижу, ненавижу, люблю
11. Галактический кот Няборон
12. Сила любви на фестивале искусств
13. До зимы рукой подать
14. Витрины и рождественские гирлянды
15. Где-же настоящий ты?
16. Я всегда любил тебя
17. Валентинов день - день шоколада
18. Любовь инопланетян
19. Дом там, где Сакурасо
20. Сакурасо навсегда останется нашим домом
21. Никто не виноват, что пошел дождь
22. Всё, что было хорошего, перечёркнуто
23. Церемония выпуска
24. Добро пожаловать в Сакурасо
-

MediaInfo

Общее
Полное имя : [Deadmau- RAWS] Sakurasou.no.Pet.na.Kanojo.BDRip.S01.RUS.JAP.Deadmauvlad.Ep.01.avi
Формат : AVI
Формат/Информация : Audio Video Interleave
Размер файла : 348 Мбайт
Продолжительность : 23 м. 42 с.
Общий поток : 2052 Кбит/сек
Название фильма : Кошечка.из.Сакурасо.2012.BDRip.RUS.JAP.Deadmauvlad.Эпизод.01
Режиссёр : Encoder by Deadmauvlad
Жанр : комедия, драма, романтика
Программа кодирования : VirtualDubMod 1.5.10.3 | www.virtualdub-fr.org || (build 2550/release)
Формат оригинала/Имя : Аниме
Авторское право : Encoder by Deadmauvlad
Примечание : Encoder by Deadmauvlad
Видео
Идентификатор : 0
Формат : MPEG-4 Visual
Профиль формата : Advanced Simple@L5
Настройки формата : BVOP1 / Custom Matrix
Параметр BVOP формата : 1
Параметр QPel формата : Нет
Параметр GMC формата : Без точки перехода
Параметр матрицы формата : Выборочная
Идентификатор кодека : XVID
Идентификатор кодека/Подсказка : XviD
Продолжительность : 23 м. 42 с.
Битрейт : 1653 Кбит/сек
Ширина : 704 пикселя
Высота : 400 пикселей
Соотношение сторон : 16:9
Частота кадров : 23,976 (24000/1001) кадра/сек
Цветовое пространство : YUV
Субдискретизация насыщенности : 4:2:0
Битовая глубина : 8 бит
Тип развёртки : Прогрессивная
Метод сжатия : С потерями
Бит/(Пиксели*Кадры) : 0.245
Размер потока : 280 Мбайт (81%)
Библиотека кодирования : XviD 73
Аудио #1
Идентификатор : 1
Формат : AC-3
Формат/Информация : Audio Coding 3
Коммерческое название : Dolby Digital
Идентификатор кодека : 2000
Продолжительность : 23 м. 41 с.
Вид битрейта : Постоянный
Битрейт : 192 Кбит/сек
Каналы : 2 канала
Channel layout : L R
Частота : 48,0 КГц
Частота кадров : 31,250 кадров/сек (1536 SPF)
Битовая глубина : 16 бит
Метод сжатия : С потерями
Задержка видео : 13 мс.
Размер потока : 32,6 Мбайт (9%)
Выравнивание : Разделение по промежуткам
Продолжительность промежутка : 42 мс. (1,00 видеокадр)
Время предзагрузки промежутка : 500 мс.
Аудио #2
Идентификатор : 2
Формат : AC-3
Формат/Информация : Audio Coding 3
Коммерческое название : Dolby Digital
Идентификатор кодека : 2000
Продолжительность : 23 м. 42 с.
Вид битрейта : Постоянный
Битрейт : 192 Кбит/сек
Каналы : 2 канала
Channel layout : L R
Частота : 48,0 КГц
Частота кадров : 31,250 кадров/сек (1536 SPF)
Битовая глубина : 16 бит
Метод сжатия : С потерями
Размер потока : 32,5 Мбайт (9%)
Выравнивание : Разделение по промежуткам
Продолжительность промежутка : 42 мс. (1,00 видеокадр)
Время предзагрузки промежутка : 500 мс.
-

Скриншоты

Релиз / Автор рипа: >Deadmauvlad <
[korsars.pro].t23478.torrent 
Торрент: Зарегистрирован [ 2019-10-28 13:00 ] · BD64D9C5A0B5117AAB587758790B5377819B3635

Скачать .torrent

Размер .torrent файла 50 KB

Статус: проверено
.torrent скачан: 9 раз
Размер: 8,07 GB
Правила
Похожие темы

Вы не зарегистрированы на нашем сайте. Вам доступна для скачивания только часть контента. Чтобы увидеть весь контент сайта, пожалуйста, зарегистрироруйтесь.

Дешевый и быстрый Сидбокс

Ключи и пин-коды

Игры, Кредитные карты, IP-телефония, Интернет провайдеры, Мобильная связь, Спутниковое ТВ

Электронные книги

Бизнес и экономика, Дом, быт, семья, досуг, Санкт-Петербург, Компьютеры и интернет, Наука и образование, Техническая литература, Юридическая литература

Цифровые товары

iTunes & App Store, Базы данных, Дизайн, Доступ к ресурсам, Kарты продления, ключи, Фотографии, Шаблоны для сайтов

Программное обеспечение

Безопасность, Игры, PC, Интернет, Мобильная связь, Программирование, Продвижение сайтов (SEO), Утилиты
У Вас отключен VIP статус, поэтому Вам показывается реклама на сайте. Вы можете поддержать наш ресурс и приобрести VIP статус, тем самым отключив показ рекламы на сайте, а ещё VIP пользователи получают возможность

смотреть аниме онлайн в HD качестве

(не распространяется на раздел Flarrow Films), а так же получить 5 инвайтов, которыми можно поделиться с друзьями или знакомыми.
Дешевый и быстрый Сидбокс

Ключи и пин-коды

Игры, Кредитные карты, IP-телефония, Интернет провайдеры, Мобильная связь, Спутниковое ТВ

Электронные книги

Бизнес и экономика, Дом, быт, семья, досуг, Санкт-Петербург, Компьютеры и интернет, Наука и образование, Техническая литература, Юридическая литература

Цифровые товары

iTunes & App Store, Базы данных, Дизайн, Доступ к ресурсам, Kарты продления, ключи, Фотографии, Шаблоны для сайтов

Программное обеспечение

Безопасность, Игры, PC, Интернет, Мобильная связь, Программирование, Продвижение сайтов (SEO), Утилиты
[Профиль] [ЛС]
Показать сообщения:    
Ответить на тему

Текущее время: 28-Окт 03:20

Часовой пояс: UTC + 4



Вы не можете начинать темы
Вы не можете отвечать на сообщения
Вы не можете редактировать свои сообщения
Вы не можете удалять свои сообщения
Вы не можете голосовать в опросах
Вы не можете прикреплять файлы к сообщениям
Вы можете скачивать файлы
Анализ сайта korsars.pro Яндекс.Метрика