Пять невест / Go-Toubun no Hanayome [S01] (2019) BDRip от KORSARS.INFO | L | Anilibria

Ответить на тему
Статистика раздачи [Обновить пиров]
Размер:  4,09 GB   |    Зарегистрирован:  1 год 11 месяцев   |    .torrent скачан:  10 раз

Полного источника не было: 1 год 7 месяцев

Качают:  2  [  0 KB/s  ]   Подробная статистика пиров
 
   
 
 
 
Автор Сообщение

4udaki ®

Оффлайн

Медали


Пол: Мужской

Стаж: 6 лет 11 месяцев

Наличие запрета:

Сообщений: 11569

Откуда: korsars.pro

Отдача: 2 Mb/s

Загрузка: 20 Mb/s

Нажми


Скачать Adguard бесплатно

Создавать темы 27-Окт-2019 17:00

[Цитировать]

Информация о фильме
Название: Пять невест
Оригинальное название: Go-Toubun no Hanayome (The Quintessential Quintuplets)
Год выпуска: 2019
Жанр: Комедия, романтика, сёнэн, гарем
Режиссер: Кувахара Сатоси
В ролях: Ёсицугу Мацуока, Кана Ханадзава, Аяна Такэтацу, Мику Ито, Аянэ Сакура, Инори Минасэ
О фильме: У находящегося в тяжёлом финансовом положении второкурсника старшей школы Футаро Уэсуги ни копейки за душой, поэтому, натолкнувшись на возможность подзаработать, он идёт на этот шаг без раздумий, да и никаких подводных камней не предвидится, ведь ему всего-то нужно стать репетитором. Вот только подтягивать по учёбе придётся собственных одноклассниц! Да ещё пятерых сестёр-близнецов! Все, как одна, красавицы-девицы, вот только поведение у них, мягко говоря, подкачало. Все пятеро терпеть не могут учёбу и находятся на грани отчисления. О том, чтобы сделать из них отличниц и речи пока нет, сначала придётся потрудиться для того, чтобы просто завоевать их доверие. Вот так отныне каждый день становится приключением, полным флирта и забавных недоразумений с сёстрами-пятерняшками! Одной из которых предстоит в будущем стать женой

Страна: Япония
Студия: Tezuka Productions
Продолжительность: 12 x ~ 00:25:00
Перевод: Любительский Многоголосый Anilibria | Malevich, Cleo-chan, MyAska, Kanade Eu, Narea, Hekomi, Sharon
Файл
Качество: BDRip [Blu-Ray 1080p [BDMV] [Vol.1-5 Fin 94.46 GB]
Видео: 720x400 (16:9), 23.976 fps, XviD ~1628 kbps avg, 0.23 bit/pixel
Аудио №1: AC-3, 48,0 КГц, 2 ch, 192 Кбит/сек, CBR | | Anilibria
Аудио №2: AC-3, 48,0 КГц, 2 ch, 192 Кбит/сек, CBR | | Оригинал
Субтитры: Русские (Crunchyroll)

Список Серий

01. The Quintessential
02. Rooftop Confession
03. A Mountain of Problems
04. A Day Off
05. Five Fifths
06. What`s Been Built Up
07. Liar McLieface
08. The Photo That Started It All
09. Legend of Fate Day 1
10. Legend of Fate Day 2
11. Legend of Fate Day 3
12. Legend of Fate Day 2000

MediaInfo

Общее
Полное имя : D:АнимеПять.Невест.2019.S01.Anilibria.BDRip.DeadmauvladGo.Toubun.No.Hanayome.2019.S01.Rus.Jap.BDRip.Deadmauvlad.Ep.01.avi
Формат : AVI
Формат/Информация : Audio Video Interleave
Размер файла : 349 Мбайт
Продолжительность : 24 м. 5 с.
Общий поток : 2027 Кбит/сек
Название фильма : Go.Toubun.No.Hanayome.2019.S01.Rus.Jap.BDRip.Deadmauvlad.Ep.01
Режиссёр : Encoder by Deadmauvlad
Жанр : романтика, сёнэн, гарем
Программа кодирования : VirtualDubMod 1.5.10.3 | www.virtualdub-fr.org || (build 2550/release)
Формат оригинала/Имя : Аниме
Авторское право : Encoder by Deadmauvlad
Примечание : Encoder by Deadmauvlad
Видео
Идентификатор : 0
Формат : MPEG-4 Visual
Профиль формата : Advanced Simple@L5
Настройки формата : BVOP1 / Custom Matrix
Параметр BVOP формата : 1
Параметр QPel формата : Нет
Параметр GMC формата : Без точки перехода
Параметр матрицы формата : Выборочная
Идентификатор кодека : XVID
Идентификатор кодека/Подсказка : XviD
Продолжительность : 24 м. 5 с.
Битрейт : 1629 Кбит/сек
Ширина : 720 пикселей
Высота : 400 пикселей
Соотношение сторон : 16:9
Частота кадров : 23,976 (24000/1001) кадра/сек
Цветовое пространство : YUV
Субдискретизация насыщенности : 4:2:0
Битовая глубина : 8 бит
Тип развёртки : Прогрессивная
Метод сжатия : С потерями
Бит/(Пиксели*Кадры) : 0.236
Размер потока : 281 Мбайт (80%)
Библиотека кодирования : XviD 73
Аудио #1
Идентификатор : 1
Формат : AC-3
Формат/Информация : Audio Coding 3
Коммерческое название : Dolby Digital
Идентификатор кодека : 2000
Продолжительность : 24 м. 5 с.
Вид битрейта : Постоянный
Битрейт : 192 Кбит/сек
Каналы : 2 канала
Channel layout : L R
Частота : 48,0 КГц
Частота кадров : 31,250 кадров/сек (1536 SPF)
Битовая глубина : 16 бит
Метод сжатия : С потерями
Размер потока : 33,1 Мбайт (9%)
Выравнивание : Разделение по промежуткам
Продолжительность промежутка : 42 мс. (1,00 видеокадр)
Время предзагрузки промежутка : 500 мс.
Аудио #2
Идентификатор : 2
Формат : AC-3
Формат/Информация : Audio Coding 3
Коммерческое название : Dolby Digital
Идентификатор кодека : 2000
Продолжительность : 24 м. 5 с.
Вид битрейта : Постоянный
Битрейт : 192 Кбит/сек
Каналы : 2 канала
Channel layout : L R
Частота : 48,0 КГц
Частота кадров : 31,250 кадров/сек (1536 SPF)
Битовая глубина : 16 бит
Метод сжатия : С потерями
Размер потока : 33,1 Мбайт (9%)
Выравнивание : Разделение по промежуткам
Продолжительность промежутка : 42 мс. (1,00 видеокадр)
Время предзагрузки промежутка : 500 мс.

Скриншоты

Без Рекламы √
Второй сезон анонсирован ориентировочно выйдет в январе 2020 г.
[korsars.pro].t23456.torrent 
Торрент: Зарегистрирован [ 2019-10-27 17:00 ] · D0A7640FB1783AE2D597E9CBED58324810D733EF

Скачать .torrent

Размер .torrent файла 9 KB

Статус: проверено
.torrent скачан: 10 раз
Размер: 4,09 GB
Правила
Похожие темы

Вы не зарегистрированы на нашем сайте. Вам доступна для скачивания только часть контента. Чтобы увидеть весь контент сайта, пожалуйста, зарегистрироруйтесь.

Дешевый и быстрый Сидбокс

Ключи и пин-коды

Игры, Кредитные карты, IP-телефония, Интернет провайдеры, Мобильная связь, Спутниковое ТВ

Электронные книги

Бизнес и экономика, Дом, быт, семья, досуг, Санкт-Петербург, Компьютеры и интернет, Наука и образование, Техническая литература, Юридическая литература

Цифровые товары

iTunes & App Store, Базы данных, Дизайн, Доступ к ресурсам, Kарты продления, ключи, Фотографии, Шаблоны для сайтов

Программное обеспечение

Безопасность, Игры, PC, Интернет, Мобильная связь, Программирование, Продвижение сайтов (SEO), Утилиты
У Вас отключен VIP статус, поэтому Вам показывается реклама на сайте. Вы можете поддержать наш ресурс и приобрести VIP статус, тем самым отключив показ рекламы на сайте, а ещё VIP пользователи получают возможность

смотреть аниме онлайн в HD качестве

(не распространяется на раздел Flarrow Films), а так же получить 5 инвайтов, которыми можно поделиться с друзьями или знакомыми.
Дешевый и быстрый Сидбокс

Ключи и пин-коды

Игры, Кредитные карты, IP-телефония, Интернет провайдеры, Мобильная связь, Спутниковое ТВ

Электронные книги

Бизнес и экономика, Дом, быт, семья, досуг, Санкт-Петербург, Компьютеры и интернет, Наука и образование, Техническая литература, Юридическая литература

Цифровые товары

iTunes & App Store, Базы данных, Дизайн, Доступ к ресурсам, Kарты продления, ключи, Фотографии, Шаблоны для сайтов

Программное обеспечение

Безопасность, Игры, PC, Интернет, Мобильная связь, Программирование, Продвижение сайтов (SEO), Утилиты
[Профиль] [ЛС]
Показать сообщения:    
Ответить на тему

Текущее время: 22-Окт 23:28

Часовой пояс: UTC + 4



Вы не можете начинать темы
Вы не можете отвечать на сообщения
Вы не можете редактировать свои сообщения
Вы не можете удалять свои сообщения
Вы не можете голосовать в опросах
Вы не можете прикреплять файлы к сообщениям
Вы можете скачивать файлы
Анализ сайта korsars.pro Яндекс.Метрика